Ссылка на приватное зеркало нашего сайта всего за 1$. Внимание количество ограничено!!!

2 сезон

iTunes

1 сезон

1

iTunes

iTunes

iTunes

1 сезон

RePack

30

ИГРА 18+

pack

ВАЖНО

!!Акция!!

Alien_RageХит недели

RePack

MK11
pack

Забери бонус

RePack

jed

!!Акция!!

Alien_Rage

RePack

fifa19

RePack

Assassins Creed: Odyssey

RePack

NEED FOR SPEED™ PAYBACK

4 сезон

9 сезон

Бесстыжие 9 сезон

Все сериалы

все сериалы на PB.wtf

RePack

FAR CRY 5
  

Похищенный / Серии: 1-2 из 2 (Владимир Фатьянов) [2020, Детектив, криминал, HDTVRip 720p] pb.wtf

Похищенный через торрент pb.wtf

Раздают: 7 [ 53 KB/s ]
Размер: 2.26 GB | Добавлен: 5 д. назад | Торрент скачан:45 раз
Скачать  

17-10-2020 15:37 Похищенный Скачать торрент  

Похищенный
Год выпуска: 2020
Страна: Россия
Студия: «Твин», «Яуза-Филь»
Жанр: Детектив, криминал
Продолжительность: ~ 00:45:00
Перевод: Не требуется
Субтитры: отсутствуют

Режиссер: Владимир Фатьянов

В ролях: Александра Лупашко, Дмитрий Паламарчук, Дмитрий Мазуров, Ксения Щербакова, Борис Щербаков, Наталья Бортникова, Евгений Хазов, Виктор Овсянников, Олег Филипчик, Артём Крестников, Сергей Савлук, Ярослав Вершинин

Описание: Спустя год после смерти мужа Нина находит в его вещах флешку с видеозаписью мальчика, который в объектив просит маму сделать то, что требуют похитители. Поиски этого мальчика приводят Нину к тайнам, которые скрывал её муж последние годы. Идти по дороге, ведущей к правде, оказывается и страшно, и грустно, и в то же время увлекательно. Тем более, что у героини вскоре появляется попутчик...

Качество: HDTVRip 720p
Формат: MKV

Видео: MPEG-4 AVC, ~ 1280x720 (16:9), 25 fps, AVC MPEG-4 (x264), High@L4.1 ~ 3500 kbps , 0.152 bit/pixel
Аудио: 48.0 kHz, AC3 Dolby Digital, 2/0 (L,R) ch, ~ 192 kbps
скриншот  скриншот  скриншот  скриншот  

Общее
Уникальный идентификатор : 172060803710704496220215518391900495664 (0x8171B495E47ACD66A0B90FDE07BADF30)
Полное имя : C:\Pohishchennyj.2020.HDTVRip.(720p)ExKinoRay\Pohishchennyj.E01.2020.HDTVRip.(720p)ExKinoRay.mkv
Формат : Matroska
Версия формата : Version 2
Размер файла : 1,10 Гбайт
Продолжительность : 42 м. 35 с.
Общий поток : 3694 Кбит/сек
Дата кодирования : UTC 2020-10-17 08:43:14
Программа кодирования : mkvmerge v7.8.0 ('River Man') 32bit built on Apr 3 2015 12:11:22
Библиотека кодирования : libebml v1.3.1 + libmatroska v1.4.2

Видео
Идентификатор : 1
Формат : AVC
Формат/Информация : Advanced Video Codec
Профиль формата : High@L4.1
Настройки формата : CABAC / 9 Ref Frames
Параметр CABAC формата : Да
Параметр RefFrames формата : 9 кадров
Идентификатор кодека : V_MPEG4/ISO/AVC
Продолжительность : 42 м. 35 с.
Битрейт : 3500 Кбит/сек
Ширина : 1280 пикселей
Высота : 720 пикселей
Соотношение сторон : 16:9
Режим частоты кадров : Постоянный
Частота кадров : 25,000 кадров/сек
Цветовое пространство : YUV
Субдискретизация насыщенности : 4:2:0
Битовая глубина : 8 бит
Тип развёртки : Прогрессивная
Бит/(Пиксели*Кадры) : 0.152
Размер потока : 1,02 Гбайт (93%)
Библиотека кодирования : x264 core 146 r2538 121396c
Настройки программы : cabac=1 / ref=9 / deblock=1:-3:-3 / analyse=0x3:0x113 / me=umh / subme=11 / psy=1 / psy_rd=1.00:0.20 / mixed_ref=1 / me_range=32 / chroma_me=1 / trellis=2 / 8x8dct=1 / cqm=0 / deadzone=21,11 / fast_pskip=1 / chroma_qp_offset=-3 / threads=24 / lookahead_threads=10 / sliced_threads=0 / nr=0 / decimate=0 / interlaced=0 / bluray_compat=0 / constrained_intra=0 / bframes=10 / b_pyramid=2 / b_adapt=2 / b_bias=0 / direct=3 / weightb=1 / open_gop=0 / weightp=2 / keyint=250 / keyint_min=25 / scenecut=40 / intra_refresh=0 / rc_lookahead=60 / rc=2pass / mbtree=1 / bitrate=3500 / ratetol=1.0 / qcomp=0.60 / qpmin=0 / qpmax=69 / qpstep=4 / cplxblur=20.0 / qblur=0.5 / vbv_maxrate=14000 / vbv_bufsize=14000 / nal_hrd=none / filler=0 / ip_ratio=1.40 / aq=3:1.40
Default : Да
Forced : Нет
Цветовой диапазон : Limited
Основные цвета : BT.709
Характеристики трансфера : BT.709
Коэффициенты матрицы : BT.709

Аудио
Идентификатор : 2
Формат : AC-3
Формат/Информация : Audio Coding 3
Коммерческое название : Dolby Digital
Идентификатор кодека : A_AC3
Продолжительность : 42 м. 35 с.
Вид битрейта : Постоянный
Битрейт : 192 Кбит/сек
Каналы : 2 канала
ChannelLayout : L R
Частота : 48,0 КГц
Частота кадров : 31,250 кадров/сек (1536 SPF)
Битовая глубина : 16 бит
Метод сжатия : С потерями
Размер потока : 58,5 Мбайт (5%)
ServiceKind/String : Complete Main
Default : Да
Forced : Нет
pb.wtf



Скачать Похищенный через торрент http://i114.fastpic.ru/big/2020/1016/1c/51e821225cd0d000a072131569f3d61c.jpg Скачать фильм Похищенный через торрент бесплантно в хорошем качестве Описание: Спустя год после смерти мужа Нина находит в его вещах флешку с видеозаписью мальчика, который в объектив просит маму сделать то, ... 10 10 5
Торрент: Зарегистрирован [2020-10-17 15:37] · скачан: 45 раз
Статус: √ проверено
Размер: 2.26 GB
Как cкачать? Как скачать Похищенный через торрент | qTorrent

% Раздел Тема Автор DL S | L
Наши сериалы [ 3.56 GB ] Похищенный / Серии: 1-2 из 2 [2020 HDTV 1080i] bober100 Скачать
5 | 0
Зарубежные сериалы [ 2.73 GB ] Похищенные / Украденные дети / Niños robados / Серии 1-2 из 2 [2013 Испания WEB-DLRip] MVO GEKADOL Скачать
1 | 0

28-11-2019 20:33  

Отключить всю рекламу на сайте

    Дорогой пользователь! Огромная просьба, поблагодарите релизера, оцените раздачу и оставьте свои комментарий, если Вы скачали Похищенный через торрент бесплатно! Внесите свою лепту в развитие PiratBit!
    Комментировать посты могут только пользователи прошедшие не сложную регистрацию
    Показать сообщения:    

    Похищенный через торрент
    Скачать бесплатно Похищенный
    Похищенный скачать торрент
    Похищенный смотреть онлайн
    Cкачать фильм Похищенный бесплатно
    Похищенный скачать торрент в хорошем качестве
    Похищенный смотреть онлайн бесплатно в хорошем качестве


    Вы не можете начинать темы
    Вы не можете отвечать на сообщения
    Вы не можете редактировать свои сообщения
    Вы не можете удалять свои сообщения
    Вы не можете голосовать в опросах
    Вы не можете прикреплять файлы к сообщениям
    Вы можете скачивать файлы