Ссылка на приватное зеркало нашего сайта всего за 1$. Внимание количество ограничено!!!

2 сезон

iTunes

1 сезон

1

iTunes

iTunes

iTunes

1 сезон

RePack

30

ИГРА 18+

pack

ВАЖНО

!!Акция!!

Alien_RageХит недели

RePack

MK11
pack

Забери бонус

RePack

jed

!!Акция!!

Alien_Rage

RePack

fifa19

RePack

Assassins Creed: Odyssey

RePack

NEED FOR SPEED™ PAYBACK

4 сезон

9 сезон

Бесстыжие 9 сезон

Все сериалы

все сериалы на PB.wtf

RePack

FAR CRY 5
  

Звёздный путь: Дискавери / Star Trek: Discovery / Сезон: 3 / Серии: 1- из 13 (Олатунде Осунсанми, Джонатан Фрейкс, Дуглас Арниокоски) [2020, фантастика, боевик, драма, приключения, WEB-DL 720p] MVO [SDI Media] pb.wtf

Звёздный путь: Дискавери через торрент pb.wtf

Раздают: 6 [ 25 KB/s ]
Размер: 1.54 GB | Добавлен: 5 д. назад | Торрент скачан:30 раз
Скачать  

17-10-2020 15:44 Звёздный путь: Дискавери Скачать торрент  

Звёздный путь: Дискавери
Star Trek: Discovery

«At the edge of the universe, discovery begins»
Год выпуска: 2020
Страна: США
Выпущено: CBS Television Studios, Living Dead Guy Productions, Roddenberry Entertainment
Жанр: фантастика, боевик, драма, приключения
Продолжительность: ~00:45:00
Перевод: Профессиональный (многоголосый) | SDI Media
Субтитры: Русские (Forced, Full |Netflix|), английские (full, NetFlix)

Режиссер: Олатунде Осунсанми, Джонатан Фрейкс, Дуглас Арниокоски

rating

В ролях: Сонекуа Мартин-Грин (Sonequa Martin-Green), Даг Джонс (Doug Jones), Энтони Рэпп (Anthony Rapp), Мэри Вайсман (Mary Wiseman), Эмили Куттс (Emily Coutts), Шазад Латиф (Shazad Latif), Патрик Квок-Чун (Patrick Kwok-Choon), Джулианна Гроссман (Julianne Grossman), Ронни Роу (Ronnie Rowe), Уилсон Крус (Wilson Cruz), Сара Митич (Sara Mitich)

Описание: За десять лет до начала первой миссии капитана Кирка исследовать новые миры и формы жизни отправляется экипаж корабля «Шэньчжоу». На борту находятся капитан Филиппа Георгиу (Мишель Йео), ее первая помощница Майкл Бернэм (Сонекуа Мартин-Грин), а также несколько представителей нечеловеческих видов. Вместе они движутся навстречу мечте о мире, в котором любые существа смогут найти общий язык. Но оказывается, что далеко не все инопланетные расы во вселенной настроены так же дружелюбно. Между Федерацией и древним клингонским кланом назревает серьезный конфликт, ради разрешения которого экипажу корабля придется забыть о доме, преодолеть величайшие испытания и пойти на серьезные жертвы. Но будущее, о котором они мечтают, лишенное страха и ставящее открытия выше завоеваний, стоит того, чтобы отринуть любые сомнения и смело пойти туда, куда не ступала нога человека...

Качество: WEB-DL 720p
Формат: MKV

Видео: MPEG-4 AVC, 1280 x 720 (1.778) at 23.976 fps, ~3 010 kbps
Аудио Rus: E-AC3, 48 kHz, 3/2 (L R C LFE Ls Rs) ch, 640 Кбит/сек |SDI Media |
Аудио Eng: E-AC3, 48 kHz, 3/2 (L R C LFE Ls Rs) ch, 640 Кбит/сек |Original|
скриншот  скриншот  скриншот  скриншот  скриншот  

Общее
Уникальный идентификатор : 247451562758262381012758110873860644882 (0xBA296FFCBBBF72600E8320931BA32012)
Полное имя : E:\_Сериалы\_Сериалы\Дискавери\Star.Trek.Discovery.S03.WEB-DL.720p.Rus.Eng\Star.Trek.Discovery.S03E01.720p.WEB-DL.Rus.Eng.mkv
Формат : Matroska
Версия формата : Version 4
Размер файла : 1,54 Гбайт
Продолжительность : 51 м. 49 с.
Режим общего битрейта : Переменный
Общий поток : 4 255 Кбит/сек
Дата кодирования : UTC 2020-10-17 14:36:38
Программа кодирования : mkvmerge v51.0.0 ('I Wish') 64-bit
Библиотека кодирования : libebml v1.4.0 + libmatroska v1.6.2

Видео
Идентификатор : 1
Формат : AVC
Формат/Информация : Advanced Video Codec
Профиль формата : Main@L3.1
Настройки формата : CABAC / 3 Ref Frames
Параметр CABAC формата : Да
Параметр RefFrames формата : 3 кадра
Идентификатор кодека : V_MPEG4/ISO/AVC
Продолжительность : 51 м. 49 с.
Вид битрейта : Переменный
Битрейт : 3 010 Кбит/сек
Максимальный битрейт : 4 515 Кбит/сек
Ширина : 1 280 пикселей
Высота : 720 пикселей
Соотношение сторон : 16:9
Режим частоты кадров : Постоянный
Частота кадров : 23,976 (24000/1001) кадра/сек
Цветовое пространство : YUV
Субдискретизация насыщенности : 4:2:0
Битовая глубина : 8 бит
Тип развёртки : Прогрессивная
Бит/(Пиксели*Кадры) : 0.136
Размер потока : 1,08 Гбайт (70%)
Библиотека кодирования : x264 core 148 r2722 1b0121b
Настройки программы : cabac=1 / ref=3 / deblock=1:0:0 / analyse=0x1:0x111 / me=umh / subme=10 / psy=1 / psy_rd=1.00:0.00 / mixed_ref=1 / me_range=24 / chroma_me=1 / trellis=2 / 8x8dct=0 / cqm=0 / deadzone=21,11 / fast_pskip=1 / chroma_qp_offset=-2 / threads=8 / lookahead_threads=1 / sliced_threads=0 / nr=0 / decimate=1 / interlaced=0 / bluray_compat=0 / stitchable=1 / constrained_intra=0 / bframes=2 / b_pyramid=0 / b_adapt=2 / b_bias=0 / direct=3 / weightb=1 / open_gop=0 / weightp=2 / keyint=250 / keyint_min=23 / scenecut=0 / intra_refresh=0 / rc_lookahead=48 / rc=2pass / mbtree=1 / bitrate=3010 / ratetol=1.0 / qcomp=0.50 / qpmin=6 / qpmax=51 / qpstep=4 / cplxblur=20.0 / qblur=0.5 / vbv_maxrate=4515 / vbv_bufsize=6020 / nal_hrd=vbr / filler=0 / ip_ratio=1.40 / aq=1:1.00
Язык : English
Default : Да
Forced : Нет

Аудио #1
Идентификатор : 2
Формат : E-AC-3
Формат/Информация : Enhanced AC-3
Коммерческое название : Dolby Digital Plus
Идентификатор кодека : A_EAC3
Продолжительность : 51 м. 49 с.
Вид битрейта : Постоянный
Битрейт : 640 Кбит/сек
Каналы : 6 каналов
Channel layout : L R C LFE Ls Rs
Частота : 48,0 КГц
Частота кадров : 31,250 кадров/сек (1536 SPF)
Метод сжатия : С потерями
Размер потока : 237 Мбайт (15%)
Заголовок : SDI
Язык : Russian
Service kind : Complete Main
Default : Да
Forced : Нет

Аудио #2
Идентификатор : 3
Формат : E-AC-3
Формат/Информация : Enhanced AC-3
Коммерческое название : Dolby Digital Plus
Идентификатор кодека : A_EAC3
Продолжительность : 51 м. 49 с.
Вид битрейта : Постоянный
Битрейт : 640 Кбит/сек
Каналы : 6 каналов
Channel layout : L R C LFE Ls Rs
Частота : 48,0 КГц
Частота кадров : 31,250 кадров/сек (1536 SPF)
Метод сжатия : С потерями
Размер потока : 237 Мбайт (15%)
Заголовок : Eng
Язык : English
Service kind : Complete Main
Default : Нет
Forced : Нет

Текст #1
Идентификатор : 4
Формат : UTF-8
Идентификатор кодека : S_TEXT/UTF8
Идентификатор кодека/Информация : UTF-8 Plain Text
Продолжительность : 37 м. 26 с.
Битрейт : 2 бит/сек
Count of elements : 21
Размер потока : 775 байт (0%)
Заголовок : Forc
Язык : Russian
Default : Да
Forced : Да

Текст #2
Идентификатор : 5
Формат : UTF-8
Идентификатор кодека : S_TEXT/UTF8
Идентификатор кодека/Информация : UTF-8 Plain Text
Продолжительность : 51 м. 11 с.
Битрейт : 76 бит/сек
Count of elements : 546
Размер потока : 28,6 Кбайт (0%)
Заголовок : Rus
Язык : Russian
Default : Нет
Forced : Нет

Текст #3
Идентификатор : 6
Формат : UTF-8
Идентификатор кодека : S_TEXT/UTF8
Идентификатор кодека/Информация : UTF-8 Plain Text
Продолжительность : 50 м. 6 с.
Битрейт : 51 бит/сек
Count of elements : 604
Размер потока : 19,1 Кбайт (0%)
Заголовок : SDH
Язык : English
Default : Нет
Forced : Нет

Когда раздача ведётся путём добавления новых серий, при каждом добавлении создётся новый торрент. Чтобы начать докачку новой серии, пользователям необходимо сделать следующее:
(1) остановить скачивание,
(2) удалить старый торрент у себя из клиента (старые серии удалять не надо),
(3) скачать новый торрент и запустить его у себя в клиенте вместо старого, при этом указать клиенту путь в старую папку, куда и должно происходить скачивание новых серий.
Ваш клиент при этом должен произвести хеширование (проверку) старой папки (если не производит сам - помогите ему сделать это), и будет докачивать только те серии, которых у вас ещё нет. Старые серии при этом не удаляются, а продолжают раздаваться!
Eсли вы уже удалили старые серии, то предотвратить повторную закачку старых серий можно, отжав галочку в соответсвующих местах при запуске нового торрента. По возможности, желательно не удалять старые серии как можно дольше, чтобы релизёр не столько продолжал раздавать старые серии, а смог сконцентрироваться на новых.

pb.wtf



Скачать Звёздный путь: Дискавери через торрент https://i2.imageban.ru/out/2020/10/16/11de03c5bc02c80fa345663c0cad753b.png Скачать фильм Звёздный путь: Дискавери через торрент бесплантно в хорошем качестве Описание: За десять лет до начала первой миссии капитана Кирка исследовать новые миры и формы жизни отправляется экипаж корабля «Шэньчжоу». ... 10 10 2
Торрент: Зарегистрирован [2020-10-17 15:44] · скачан: 30 раз
Статус: √ проверено
Размер: 1.54 GB
Как cкачать? Как скачать Звёздный путь: Дискавери через торрент | qTorrent

% Раздел Тема Автор DL S | L
Зарубежные сериалы [ 2.08 GB ] Звёздный путь: Дискавери / Star Trek: Discovery / Сезон: 3 / Серии: 1- из 13 [2020 WEB-DL 720p] 2xMVO [LostFilm NewStudio] bober100 Скачать
2 | 0
Зарубежные сериалы [ 651 MB ] Звёздный путь: Дискавери / Star Trek: Discovery / Сезон: 3 / Серии: 1- из 13 [2020 WEB-DLRip] MVO [LostFilm] bober100 Скачать
4 | 0
Зарубежные сериалы [ 2.38 GB ] Звёздный путь: Дискавери / Star Trek: Discovery / Сезон: 3 / Серии: 1- из 13 [2020 WEB-DL 1080p] MVO [SDI Media] bober100 Скачать
3 | 0
Зарубежные сериалы [ 1012 MB ] Звёздный путь: Дискавери / Star Trek: Discovery / Сезон: 3 / Серии: 1- из 13 [2020 WEB-DLRip] MVO [SDI Media] bober100 Скачать
2 | 0

28-11-2019 20:33  

Отключить всю рекламу на сайте

    Дорогой пользователь! Огромная просьба, поблагодарите релизера, оцените раздачу и оставьте свои комментарий, если Вы скачали Звёздный путь: Дискавери через торрент бесплатно! Внесите свою лепту в развитие PiratBit!
    Комментировать посты могут только пользователи прошедшие не сложную регистрацию
    Показать сообщения:    

    Звёздный путь: Дискавери через торрент
    Скачать бесплатно Звёздный путь: Дискавери
    Звёздный путь: Дискавери скачать торрент
    Звёздный путь: Дискавери смотреть онлайн
    Cкачать фильм Звёздный путь: Дискавери бесплатно
    Звёздный путь: Дискавери скачать торрент в хорошем качестве
    Звёздный путь: Дискавери смотреть онлайн бесплатно в хорошем качестве


    Вы не можете начинать темы
    Вы не можете отвечать на сообщения
    Вы не можете редактировать свои сообщения
    Вы не можете удалять свои сообщения
    Вы не можете голосовать в опросах
    Вы не можете прикреплять файлы к сообщениям
    Вы можете скачивать файлы