Ссылка на приватное зеркало нашего сайта всего за 1$. Внимание количество ограничено!!!

2 сезон

iTunes

1 сезон

1

iTunes

iTunes

iTunes

1 сезон

RePack

30

ИГРА 18+

pack

ВАЖНО

!!Акция!!

Alien_RageХит недели

RePack

MK11
pack

Забери бонус

RePack

jed

!!Акция!!

Alien_Rage

RePack

fifa19

RePack

Assassins Creed: Odyssey

RePack

NEED FOR SPEED™ PAYBACK

4 сезон

9 сезон

Бесстыжие 9 сезон

Все сериалы

все сериалы на PB.wtf

RePack

FAR CRY 5
  

Ложь / Добро пожаловать в Блумхаус: Ложь / The Lie / Welcome to the Blumhouse: The Lie (Вина Суд) [2020, триллер, драма, WEB-DL 1080p] [MVO] (HDRezka Studio) pb.wtf

Ложь через торрент pb.wtf

Раздают: 6 [ 4 KB/s ]
Размер: 5.79 GB | Добавлен: 5 д. назад | Торрент скачан:69 раз
Скачать  

17-10-2020 16:55 Ложь Скачать торрент  

Ложь / Добро пожаловать
в Блумхаус: Ложь
The Lie / Welcome to the Blumhouse: The Lie
/ Between Earth and Sky


Год выпуска: 2020
Страна: США
Жанр: Триллер, драма
Продолжительность: 01:35:04
Перевод: Профессиональный (многоголосый закадровый) HDRezka Studio
Субтитры: Русские (forced, full), английские, французские, немецкие, китайские

Режиссер: Вина Суд / Veena Sud

В ролях: Питер Сарсгаард, Мирей Инос, Джои Кинг, Кэс Анвар, Патти Ким, Николас Ли, Девери Джейкобс, Даниэль Кайнд, Алан Ван Спрэнг, Родриго Фернандез-Столл

Описание: Родители 15-летней Кайлы развелись и живут каждый своей личной жизнью, но она никак не может с этим смириться. Однажды по дороге в танцевальный кружок Кайла с отцом берутся подвезти её лучшую подругу Бритни. После происходит странный инцидент - Кайла утверждает, что столкнула Бритни с моста в холодную реку, и та пропала. Теперь напуганные родители будут делать всё возможное, чтобы скрыть этот факт и защитить дочь любой ценой.



Тип релиза: WEB-DL 1080p
Контейнер: MKV

Видео: MPEG-4 AVC, 1080p, 1920:800 (2.40:1), 7625 kbps, 23.976 fps
Аудио 1: АС3, 6 ch, 48 kHz, 448 kbps, 16 bits Русский MVO HDRezka Studio
Аудио 2: Е-AC3, 6 ch, 48 kHz, 640 kbps, 16 bits Английский
Формат субтитров: SRT
General
Unique ID : 316799191362132048425959074649457360907 (0xEE554E0DF08038BD86B7350D6901000B)
Complete name : S:\The.Lie.2020.AMZN.WEB-DL.1080p.mkv
Format : Matroska
Format version : Version 4
File size : 5.79 GiB
Duration : 1 h 35 min
Overall bit rate : 8 715 kb/s
Encoded date : UTC 2020-10-10 04:45:44
Writing application : mkvmerge v20.0.0 ('I Am The Sun') 64-bit
Writing library : libebml v1.3.5 + libmatroska v1.4.8

Video
ID : 1
Format : AVC
Format/Info : Advanced Video Codec
Format profile : High@L4
Format settings : CABAC / 4 Ref Frames
Format settings, CABAC : Yes
Format settings, Reference frames : 4 frames
Codec ID : V_MPEG4/ISO/AVC
Duration : 1 h 35 min
Bit rate mode : Constant
Bit rate : 7 625 kb/s
Nominal bit rate : 10 000 kb/s
Width : 1 920 pixels
Height : 800 pixels
Display aspect ratio : 2.40:1
Frame rate mode : Constant
Frame rate : 23.976 (24000/1001) FPS
Color space : YUV
Chroma subsampling : 4:2:0
Bit depth : 8 bits
Scan type : Progressive
Bits/(Pixel*Frame) : 0.207
Stream size : 5.06 GiB (87%)
Language : English
Default : Yes
Forced : No
Color range : Limited
Color primaries : BT.709
Transfer characteristics : BT.709
Matrix coefficients : BT.709

Audio #1
ID : 2
Format : AC-3
Format/Info : Audio Coding 3
Commercial name : Dolby Digital
Codec ID : A_AC3
Duration : 1 h 35 min
Bit rate mode : Constant
Bit rate : 448 kb/s
Channel(s) : 6 channels
Channel layout : L R C LFE Ls Rs
Sampling rate : 48.0 kHz
Frame rate : 31.250 FPS (1536 SPF)
Compression mode : Lossy
Stream size : 305 MiB (5%)
Title : MVO HDRezka Studio
Language : Russian
Service kind : Complete Main
Default : Yes
Forced : No

Audio #2
ID : 3
Format : E-AC-3
Format/Info : Enhanced AC-3
Commercial name : Dolby Digital Plus
Codec ID : A_EAC3
Duration : 1 h 35 min
Bit rate mode : Constant
Bit rate : 640 kb/s
Channel(s) : 6 channels
Channel layout : L R C LFE Ls Rs
Sampling rate : 48.0 kHz
Frame rate : 31.250 FPS (1536 SPF)
Compression mode : Lossy
Stream size : 435 MiB (7%)
Language : English
Service kind : Complete Main
Default : No
Forced : No

Text #1
ID : 4
Format : UTF-8
Codec ID : S_TEXT/UTF8
Codec ID/Info : UTF-8 Plain Text
Duration : 2 s 335 ms
Bit rate : 71 b/s
Count of elements : 1
Stream size : 21.0 Bytes (0%)
Title : forced
Language : Russian
Default : Yes
Forced : No

Text #2
ID : 5
Format : UTF-8
Codec ID : S_TEXT/UTF8
Codec ID/Info : UTF-8 Plain Text
Duration : 1 h 34 min
Bit rate : 59 b/s
Count of elements : 875
Stream size : 40.9 KiB (0%)
Language : Russian
Default : No
Forced : No

Text #3
ID : 6
Format : UTF-8
Codec ID : S_TEXT/UTF8
Codec ID/Info : UTF-8 Plain Text
Duration : 1 h 34 min
Bit rate : 50 b/s
Count of elements : 1213
Stream size : 34.7 KiB (0%)
Title : SDH
Language : English
Default : No
Forced : No

Text #4
ID : 7
Format : UTF-8
Codec ID : S_TEXT/UTF8
Codec ID/Info : UTF-8 Plain Text
Duration : 1 h 34 min
Bit rate : 37 b/s
Count of elements : 868
Stream size : 25.7 KiB (0%)
Language : French
Default : No
Forced : No

Text #5
ID : 8
Format : UTF-8
Codec ID : S_TEXT/UTF8
Codec ID/Info : UTF-8 Plain Text
Duration : 1 h 34 min
Bit rate : 38 b/s
Count of elements : 763
Stream size : 26.5 KiB (0%)
Language : German
Default : No
Forced : No

Text #6
ID : 9
Format : UTF-8
Codec ID : S_TEXT/UTF8
Codec ID/Info : UTF-8 Plain Text
Duration : 1 h 34 min
Bit rate : 35 b/s
Count of elements : 874
Stream size : 24.6 KiB (0%)
Title : 简体
Language : Chinese
Default : No
Forced : No

Menu
00:00:00.000 : en:Amazon Original
00:00:21.000 : en:Memories of Kayla
00:01:25.000 : en:Title Sequence
00:01:30.000 : en:Kayla is in a car
00:03:30.000 : en:Kayla comes to dad's place
00:05:19.000 : en:Kayla finds Brittany
00:07:24.000 : en:Jay pulls over his car
00:09:20.000 : en:Jay looks for Brittany
00:12:10.000 : en:Jay comes to Rebecca's office
00:14:04.000 : en:Kayla is at mom's home
00:16:56.000 : en:Jay and Rebecca talk about Kayla
00:21:35.000 : en:Making a breakfast
00:26:58.000 : en:Rebecca is alone at home
00:32:04.000 : en:Kayla watches TV
00:35:58.000 : en:Sam looks for Britanny
00:37:56.000 : en:Rebecca cares Jay
00:39:33.000 : en:Rebecca talks to Kenji
00:41:10.000 : en:Kayla needs a help
00:44:23.000 : en:Kenji comes by Rebecca's house
00:48:28.000 : en:Kayla asks Jay to stay
00:52:13.000 : en:Sam gets home
00:53:45.000 : en:Jay backs to his place
00:56:42.000 : en:Kenji has questions
00:58:32.000 : en:Sam finds out Kayla
01:01:44.000 : en:Kayla faints
01:04:07.000 : en:The bus stop
01:05:30.000 : en:Kenji brings something
01:09:43.000 : en:After Kayla gets sleep
01:17:03.000 : en:Rebecca and Jay are at home
01:21:28.000 : en:Another lie
01:25:14.000 : en:Please don't leave me
01:28:45.000 : en:End Credits
скриншот  скриншот  скриншот  
pb.wtf



Скачать Ложь через торрент https://i114.fastpic.ru/big/2020/1010/4c/a5d081ccc95a8c65ccdcbdeb0091174c.jpg Скачать фильм Ложь через торрент бесплантно в хорошем качестве Описание: Родители 15-летней Кайлы развелись и живут каждый своей личной жизнью, но она никак не может с этим смириться. Однажды по дороге ... 9.8 10 5
Торрент: Зарегистрирован [2020-10-17 16:55] · скачан: 69 раз
Статус: √ проверено
Размер: 5.79 GB
Как cкачать? Как скачать Ложь через торрент | qTorrent

28-11-2019 20:33  

Отключить всю рекламу на сайте

17-10-2020 16:57 Ложь Скачать торрент  

Фильм понравился, местами может показаться немного нудным но финал... В общем смотрите сами pb.wtf



    Дорогой пользователь! Огромная просьба, поблагодарите релизера, оцените раздачу и оставьте свои комментарий, если Вы скачали Ложь через торрент бесплатно! Внесите свою лепту в развитие PiratBit!
    Комментировать посты могут только пользователи прошедшие не сложную регистрацию
    Показать сообщения:    

    Ложь через торрент
    Скачать бесплатно Ложь
    Ложь скачать торрент
    Ложь смотреть онлайн
    Cкачать фильм Ложь бесплатно
    Ложь скачать торрент в хорошем качестве
    Ложь смотреть онлайн бесплатно в хорошем качестве


    Вы не можете начинать темы
    Вы не можете отвечать на сообщения
    Вы не можете редактировать свои сообщения
    Вы не можете удалять свои сообщения
    Вы не можете голосовать в опросах
    Вы не можете прикреплять файлы к сообщениям
    Вы можете скачивать файлы