Ссылка на приватное зеркало нашего сайта всего за 1$. Внимание количество ограничено!!!

2 сезон

iTunes

1 сезон

1

iTunes

iTunes

iTunes

1 сезон

RePack

30

ИГРА 18+

pack

ВАЖНО

!!Акция!!

Alien_RageХит недели

RePack

MK11
pack

Забери бонус

RePack

jed

!!Акция!!

Alien_Rage

RePack

fifa19

RePack

Assassins Creed: Odyssey

RePack

NEED FOR SPEED™ PAYBACK

4 сезон

9 сезон

Бесстыжие 9 сезон

Все сериалы

все сериалы на PB.wtf

RePack

FAR CRY 5
  

Каджиллионер / Kajillionaire (Миранда Джулай) [2020, Драма, криминал, WEB-DL 1080p] [MVO] (AlphaProject) pb.wtf

Каджиллионер через торрент pb.wtf

Раздают: 8 [ 69 KB/s ]
Размер: 3.94 GB | Добавлен: 5 д. назад | Торрент скачан:62 раза
Скачать  

17-10-2020 17:07 Каджиллионер Скачать торрент  

Каджиллионер / Kajillionaire Год выхода: 2020
Жанр: Драма, криминал
Страна: США
Студия: Annapurna Pictures, Plan B Entertainment
Продолжительность: 01:44:49
Перевод: Любительский многоголосый | AlphaProject

Режиссер: Миранда Джулай

В ролях: Эван Рэйчел Вуд, Дебра Уингер, Джина Родригес, Ричард Дженкинс, Адам Бартли, Диана-Мария Рива, Патриша Белчер, Да Вин Джой Рэндольф, Марк Иванир, Мадлен Когхлан

О фильме: Главную героиню на протяжении последних 26 лет упорно тренируют обманывать, красть и мошенничать, причём её собственные родители. Сами они, понятное дело, промышляют тем же, и дочка становится без преувеличения главной звездой их странной волосатой банды. Но внезапно идеально отлаженный механизм даёт сбой, когда к семейству присоединяется горячая и дико милая незнакомка...

rating

Файл

Качество: WEB-DL 1080p
Кодек: MPEG-4 AVC
Видео: 4808 Кбит/с, 1920x1080, 23.976 кадр/с
Звук:
Аудио #1: AC3, 48 Гц, 192 Кбит/сек, 2 ch (L + R) | MVO | AlphaProject
Аудио #2: AC3, 48 Гц, 384 Кбит/сек, 6 ch (L C R, + L R, LFE) | Английский
Субтитры: Английские

Общее

Уникальный идентификатор : 96521497299602772819903276467390916001 (0x489D5D3BBA94D4053A551DACFE3A25A1)

Полное имя : D:ТоррентыKajillionaire.2020.RU.ENG.x264.WEB-DL-1080p-MediaBit.mkv

Формат : Matroska

Версия формата : Version 4

Размер файла : 3,94 Гбайт

Продолжительность : 1 ч. 44 м.

Общий поток : 5 386 Кбит/сек

Название фильма : Каджиллионер / Kajillionaire (2020)

Дата кодирования : UTC 2020-10-17 12:39:27

Программа кодирования : mkvmerge v25.0.0 ('Prog Noir') 64-bit

Библиотека кодирования : libebml v1.3.6 + libmatroska v1.4.9

Видео

Идентификатор : 1

Формат : AVC

Формат/Информация : Advanced Video Codec

Профиль формата : High@L4

Настройки формата : CABAC / 2 Ref Frames

Параметр CABAC формата : Да

Параметр RefFrames формата : 2 кадра

Идентификатор кодека : V_MPEG4/ISO/AVC

Продолжительность : 1 ч. 44 м.

Битрейт : 4 808 Кбит/сек

Ширина : 1 920 пикселей

Высота : 1 080 пикселей

Соотношение сторон : 16:9

Режим частоты кадров : Постоянный

Частота кадров : 23,976 (24000/1001) кадра/сек

Цветовое пространство : YUV

Субдискретизация насыщенности : 4:2:0

Битовая глубина : 8 бит

Тип развёртки : Прогрессивная

Бит/(Пиксели*Кадры) : 0.097

Размер потока : 3,52 Гбайт (89%)

Библиотека кодирования : x264 core 155 r2901 7d0ff22

Язык : English

Default : Да

Forced : Нет

Цветовой диапазон : Limited

Основные цвета : BT.709

Характеристики трансфера : BT.709

Коэффициенты матрицы : BT.709

Аудио #1

Идентификатор : 2

Формат : AC-3

Формат/Информация : Audio Coding 3

Коммерческое название : Dolby Digital

Идентификатор кодека : A_AC3

Продолжительность : 1 ч. 44 м.

Вид битрейта : Постоянный

Битрейт : 192 Кбит/сек

Каналы : 2 канала

Channel layout : L R

Частота : 48,0 КГц

Частота кадров : 31,250 кадров/сек (1536 SPF)

Метод сжатия : С потерями

Размер потока : 144 Мбайт (4%)

Заголовок : MVO [AlphaProject] MediaBit

Язык : Russian

Service kind : Complete Main

Default : Да

Forced : Нет

Аудио #2

Идентификатор : 3

Формат : AC-3

Формат/Информация : Audio Coding 3

Коммерческое название : Dolby Digital

Идентификатор кодека : A_AC3

Продолжительность : 1 ч. 44 м.

Вид битрейта : Постоянный

Битрейт : 384 Кбит/сек

Каналы : 6 каналов

Channel layout : L R C LFE Ls Rs

Частота : 48,0 КГц

Частота кадров : 31,250 кадров/сек (1536 SPF)

Метод сжатия : С потерями

Размер потока : 288 Мбайт (7%)

Язык : English

Service kind : Complete Main

Default : Нет

Forced : Нет

Текст

Идентификатор : 4

Формат : UTF-8

Идентификатор кодека : S_TEXT/UTF8

Идентификатор кодека/Информация : UTF-8 Plain Text

Продолжительность : 1 ч. 35 м.

Битрейт : 54 бит/сек

Count of elements : 1435

Размер потока : 38,4 Кбайт (0%)

Язык : English

Default : Нет

Forced : Нет
скриншот  скриншот  скриншот  
pb.wtf



Скачать Каджиллионер через торрент https://a.radikal.ru/a08/2010/ce/c444daad44ea.jpg Скачать фильм Каджиллионер через торрент бесплантно в хорошем качестве О фильме: Главную героиню на протяжении последних 26 лет упорно тренируют обманывать, красть и мошенничать, причём её собственные родители. ... 10 10 4
Торрент: Зарегистрирован [2020-10-17 17:07] · скачан: 62 раз
Статус: T временная
Размер: 3.94 GB
Как cкачать? Как скачать Каджиллионер через торрент | qTorrent

% Раздел Тема Автор DL S | L
T Фильмы 2019-2020 [DVDrip, WEB-DLRip, HDrip] (DUB, MVO) [ 1.46 GB ] Каджиллионер / Kajillionaire [2020 WEB-DLRip-AVC] [MVO] [AlphaProject] от MediaBit Lithuania Скачать
10 | 1

28-11-2019 20:33  

Отключить всю рекламу на сайте

17-10-2020 17:54 Каджиллионер Скачать торрент  

волосатой банды pb.wtf



    Дорогой пользователь! Огромная просьба, поблагодарите релизера, оцените раздачу и оставьте свои комментарий, если Вы скачали Каджиллионер через торрент бесплатно! Внесите свою лепту в развитие PiratBit!
    Комментировать посты могут только пользователи прошедшие не сложную регистрацию
    Показать сообщения:    

    Каджиллионер через торрент
    Скачать бесплатно Каджиллионер
    Каджиллионер скачать торрент
    Каджиллионер смотреть онлайн
    Cкачать фильм Каджиллионер бесплатно
    Каджиллионер скачать торрент в хорошем качестве
    Каджиллионер смотреть онлайн бесплатно в хорошем качестве


    Вы не можете начинать темы
    Вы не можете отвечать на сообщения
    Вы не можете редактировать свои сообщения
    Вы не можете удалять свои сообщения
    Вы не можете голосовать в опросах
    Вы не можете прикреплять файлы к сообщениям
    Вы можете скачивать файлы