Ссылка на приватное зеркало нашего сайта всего за 1$. Внимание количество ограничено!!!

2 сезон

iTunes

1 сезон

1

iTunes

iTunes

iTunes

1 сезон

RePack

30

ИГРА 18+

pack

ВАЖНО

!!Акция!!

Alien_RageХит недели

RePack

MK11
pack

Забери бонус

RePack

jed

!!Акция!!

Alien_Rage

RePack

fifa19

RePack

Assassins Creed: Odyssey

RePack

NEED FOR SPEED™ PAYBACK

4 сезон

9 сезон

Бесстыжие 9 сезон

Все сериалы

все сериалы на PB.wtf

RePack

FAR CRY 5
  

Мех: Воображаемый портрет Дианы Арбус / Fur: An Imaginary Portrait of Diane Arbus (Стивен Шейнберг) [2006 г., драма, мелодрама, детектив, биография, DVDRip-AVC] [MVO] pb.wtf

Мех: Воображаемый портрет Дианы Арбус через торрент pb.wtf

Раздают: 1 [ 0 KB/s ]
Размер: 2.17 GB | Добавлен: 5 д. назад | Торрент скачан:12 раз
Скачать  

17-10-2020 17:53 Мех: Воображаемый портрет Дианы Арбус Скачать торрент  

Мех: Воображаемый портрет Дианы Арбус / Fur: An Imaginary Portrait of Diane Arbus
Год выхода: 2006
Жанр: драма, мелодрама, детектив, биография
Выпущено: США/ River Road Entertainment, Vox3 Films, Edward R. Pressman Film Corporation, Iron Films LLC, Furthefilm LLC
Продолжительность: 01:57:03
Перевод: Профессиональный (многоголосый)

Режиссер: Стивен Шейнберг

В ролях: Николь Кидман, Роберт Дауни мл., Джейн Александер (I), Харрис Юлин, Тай Буррелл, Эмми Кларк, Женев МакКарти, Борис МакГайвер, Марселин Хьюго, Мэри Даффи

О фильме:

Из окна своей квартиры в Нью-Йорке Диана Арбус видит фигуру в маске — таинственного нового соседа. Заинтригованная Диана хочет его сфотографировать и отправляется к нему в квартиру. С этого и начинается ее путешествие, которое раскрывает самые потаенные секреты Дианы, пробуждает в ней гения, а также направляет на путь выдающегося художника.

rating

Качество: DVDRip-AVC
Формат: MKV
Видео: 860x464 (1.85:1), 25 fps, ~1711 kbps avg, 0.18 bit/pixel
Звук: Russian: 48 kHz, AC3 Dolby Digital, 3/2 (L,C,R,l,r) + LFE ch, ~448 kbps
Звук: English: 48 kHz, AC3 Dolby Digital, 3/2 (L,C,R,l,r) + LFE ch, ~448 kbps
General
Unique ID : 168348648403719580577546155723716462494 (0x7EA6C532C2870C1E037BA147C20E879E)
Complete name : G:\Воображаемый портрет Дианы Арбус.2006.DVDRip.mkv
Format : Matroska
Format version : Version 2
File size : 2.17 GiB
Duration : 1 h 57 min
Overall bit rate : 2 660 kb/s
Writing application : Lavf51.12.1
Writing library : Lavf51.12.1

Video
ID : 1
Format : AVC
Format/Info : Advanced Video Codec
Format profile : High@L3.1
Format settings : 1 Ref Frames
Format settings, CABAC : No
Format settings, Reference : 1 frame
Format settings, GOP : M=1, N=12
Codec ID : V_MPEG4/ISO/AVC
Duration : 1 h 57 min
Bit rate : 1 711 kb/s
Width : 860 pixels
Height : 464 pixels
Display aspect ratio : 1.85:1
Original display aspect rat : 1.85:1
Frame rate mode : Constant
Frame rate : 25.000 FPS
Color space : YUV
Chroma subsampling : 4:2:0
Bit depth : 8 bits
Scan type : Progressive
Bits/(Pixel*Frame) : 0.172
Stream size : 1.40 GiB (64%)
Default : Yes
Forced : No
Duration_Source : General_Duration

Audio #1
ID : 2
Format : AC-3
Format/Info : Audio Coding 3
Commercial name : Dolby Digital
Codec ID : A_AC3
Duration : 1 h 57 min
Bit rate mode : Constant
Bit rate : 448 kb/s
Channel(s) : 6 channels
Channel layout : L R C LFE Ls Rs
Sampling rate : 48.0 kHz
Frame rate : 31.250 FPS (1536 SPF)
Bit depth : 32 bits
Compression mode : Lossy
Stream size : 375 MiB (17%)
Service kind : Complete Main
Default : Yes
Forced : No
Duration_Source : General_Duration

Audio #2
ID : 3
Format : AC-3
Format/Info : Audio Coding 3
Commercial name : Dolby Digital
Codec ID : A_AC3
Duration : 1 h 57 min
Bit rate mode : Constant
Bit rate : 448 kb/s
Channel(s) : 6 channels
Channel layout : L R C LFE Ls Rs
Sampling rate : 48.0 kHz
Frame rate : 31.250 FPS (1536 SPF)
Bit depth : 32 bits
Compression mode : Lossy
Stream size : 375 MiB (17%)
Service kind : Complete Main
Default : Yes
Forced : No
Duration_Source : General_Duration
скриншот  скриншот  скриншот  
pb.wtf



Скачать Мех: Воображаемый портрет Дианы Арбус через торрент http://i61.fastpic.ru/big/2014/0621/c2/9b3f1b5a228d86c1d590827ddf7dc7c2.jpg Скачать фильм Мех: Воображаемый портрет Дианы Арбус через торрент бесплантно в хорошем качестве О фильме:Из окна своей квартиры в Нью-Йорке Диана Арбус видит фигуру в маске — таинственного нового соседа. Заинтригованная Диана хочет его ... 10 10 1
Торрент: Зарегистрирован [2020-10-17 17:53] · скачан: 12 раз
Статус: √ проверено
Размер: 2.17 GB
Как cкачать? Как скачать Мех: Воображаемый портрет Дианы Арбус через торрент | qTorrent

% Раздел Тема Автор DL S | L
Фильмы 2006-2008 [ 2.19 GB ] Мех: Воображаемый портрет Дианы Арбус / Fur: An Imaginary Portrait of Diane Arbus [2006 биография DVDRip Многоголосый] capral555 Скачать
1 | 0
Фильмы 2006-2008 [ 1.36 GB ] Мех: Воображаемый портрет Дианы Арбус / Fur: An Imaginary Portrait of Diane Arbus [2006 биография ... DVDRip] Тими Скачать
1 | 0

28-11-2019 20:33  

Отключить всю рекламу на сайте

    Дорогой пользователь! Огромная просьба, поблагодарите релизера, оцените раздачу и оставьте свои комментарий, если Вы скачали Мех: Воображаемый портрет Дианы Арбус через торрент бесплатно! Внесите свою лепту в развитие PiratBit!
    Комментировать посты могут только пользователи прошедшие не сложную регистрацию
    Показать сообщения:    

    Мех: Воображаемый портрет Дианы Арбус через торрент
    Скачать бесплатно Мех: Воображаемый портрет Дианы Арбус
    Мех: Воображаемый портрет Дианы Арбус скачать торрент
    Мех: Воображаемый портрет Дианы Арбус смотреть онлайн
    Cкачать фильм Мех: Воображаемый портрет Дианы Арбус бесплатно
    Мех: Воображаемый портрет Дианы Арбус скачать торрент в хорошем качестве
    Мех: Воображаемый портрет Дианы Арбус смотреть онлайн бесплатно в хорошем качестве


    Вы не можете начинать темы
    Вы не можете отвечать на сообщения
    Вы не можете редактировать свои сообщения
    Вы не можете удалять свои сообщения
    Вы не можете голосовать в опросах
    Вы не можете прикреплять файлы к сообщениям
    Вы можете скачивать файлы