Ссылка на приватное зеркало нашего сайта всего за 1$. Внимание количество ограничено!!!

2 сезон

iTunes

1 сезон

1

iTunes

iTunes

iTunes

1 сезон

RePack

30

ИГРА 18+

pack

ВАЖНО

!!Акция!!

Alien_RageХит недели

RePack

MK11
pack

Забери бонус

RePack

jed

!!Акция!!

Alien_Rage

RePack

fifa19

RePack

Assassins Creed: Odyssey

RePack

NEED FOR SPEED™ PAYBACK

4 сезон

9 сезон

Бесстыжие 9 сезон

Все сериалы

все сериалы на PB.wtf

RePack

FAR CRY 5
  

Калашников (Константин Буслов) [2020, биография, история, BDRip 1080p, (GER Transfer)] [iTunes] pb.wtf

Калашников через торрент pb.wtf

Раздают: 19 [ 3 MB/s ] Качают: 1 [ 3 MB/s ]
Размер: 8.18 GB | Добавлен: 5 д. назад | Торрент скачан:106 раз
Скачать  

17-10-2020 19:20 Калашников Скачать торрент  

Калашников
Год выпуска: 2020
Страна: Россия
Студия: RB Production
Жанр: биография, история
Продолжительность: 01:44:33
Перевод: Не требуется | iTunes
Субтитры: Немецкие

Режиссер: Константин Буслов

rating

В ролях: Юрий Борисов, Ольга Лерман, Артур Смольянинов, Эльдар Калимулин, Виталий Хаев, Валерий Баринов, Анатолий Лобоцкий, Алексей Вертков, Дмитрий Богдан, Максим Битюков

Описание: Калашников. Все знают эту фамилию, но не все знают, какой долгий и тернистый путь прошел парень-самоучка, чтобы в 28 создать легендарное оружие АК-47, которое по сей день является символом оружейной мысли нашего времени.

Качество: BDRip 1080p | GER Transfer
Формат: MKV

Видео: MPEG-4 AVC, 9300 Кбит/с, 1920x856
Аудио#1: Русский (AC3, 6 ch, 384 Кбит/с)
Аудио#2: немецкий (DTS, 6 ch, 1510 Кбит/с)
скриншот  скриншот  скриншот  скриншот  

Общее
Уникальный идентификатор : 102026117845473244140472352735640001867 (0x4CC183FAE051F23D2D30F4B2B4B19D4B)
Полное имя : C:\Users\Gosha 72\Downloads\Kalashnikov.2020.BDRip.1080p.mkv
Формат : Matroska
Версия формата : Version 4
Размер файла : 8,18 Гбайт
Продолжительность : 1 ч. 44 м.
Общий поток : 11,2 Мбит/сек
Дата кодирования : UTC 2020-10-17 18:26:19
Программа кодирования : mkvmerge v49.0.0 ('Sick Of Losing Soulmates') 64-bit
Библиотека кодирования : libebml v1.4.0 + libmatroska v1.6.1

Видео
Идентификатор : 1
Формат : AVC
Формат/Информация : Advanced Video Codec
Профиль формата : High@L4.1
Настройки формата : CABAC / 5 Ref Frames
Параметр CABAC формата : Да
Параметр RefFrames формата : 5 кадров
Идентификатор кодека : V_MPEG4/ISO/AVC
Продолжительность : 1 ч. 44 м.
Битрейт : 9300 Кбит/сек
Ширина : 1920 пикселей
Высота : 856 пикселей
Соотношение сторон : 2,25:1
Режим частоты кадров : Постоянный
Частота кадров : 24,000 кадра/сек
Цветовое пространство : YUV
Субдискретизация насыщенности : 4:2:0
Битовая глубина : 8 бит
Тип развёртки : Прогрессивная
Бит/(Пиксели*Кадры) : 0.236
Размер потока : 6,79 Гбайт (83%)
Библиотека кодирования : x264 core 161 r3018 db0d417
Настройки программы : cabac=1 / ref=5 / deblock=1:-3:-3 / analyse=0x3:0x133 / me=umh / subme=7 / psy=1 / psy_rd=1.00:0.15 / mixed_ref=1 / me_range=16 / chroma_me=1 / trellis=1 / 8x8dct=1 / cqm=0 / deadzone=21,11 / fast_pskip=0 / chroma_qp_offset=-3 / threads=27 / lookahead_threads=4 / sliced_threads=0 / nr=0 / decimate=1 / interlaced=0 / bluray_compat=0 / constrained_intra=0 / bframes=3 / b_pyramid=2 / b_adapt=2 / b_bias=0 / direct=3 / weightb=1 / open_gop=0 / weightp=2 / keyint=240 / keyint_min=24 / scenecut=40 / intra_refresh=0 / rc_lookahead=50 / rc=crf / mbtree=1 / crf=20.0 / qcomp=0.60 / qpmin=0 / qpmax=69 / qpstep=4 / ip_ratio=1.40 / aq=1:1.00
Язык : English
Default : Да
Forced : Нет

Аудио #1
Идентификатор : 2
Формат : AC-3
Формат/Информация : Audio Coding 3
Коммерческое название : Dolby Digital
Идентификатор кодека : A_AC3
Продолжительность : 1 ч. 44 м.
Вид битрейта : Постоянный
Битрейт : 384 Кбит/сек
Каналы : 6 каналов
ChannelLayout : L R C LFE Ls Rs
Частота : 48,0 КГц
Частота кадров : 31,250 кадров/сек (1536 SPF)
Битовая глубина : 16 бит
Метод сжатия : С потерями
Размер потока : 287 Мбайт (3%)
Язык : Russian
ServiceKind/String : Complete Main
Default : Да
Forced : Нет

Аудио #2
Идентификатор : 3
Формат : DTS
Формат/Информация : Digital Theater Systems
Идентификатор кодека : A_DTS
Продолжительность : 1 ч. 44 м.
Вид битрейта : Постоянный
Битрейт : 1509 Кбит/сек
Каналы : 6 каналов
ChannelLayout : C L R Ls Rs LFE
Частота : 48,0 КГц
Частота кадров : 93,750 кадра/сек (512 SPF)
Битовая глубина : 24 бит
Метод сжатия : С потерями
Размер потока : 1,10 Гбайт (13%)
Язык : German
Default : Нет
Forced : Нет

Текст
Идентификатор : 4
Формат : UTF-8
Идентификатор кодека : S_TEXT/UTF8
Идентификатор кодека/Информация : UTF-8 Plain Text
Продолжительность : 1 ч. 26 м.
Битрейт : 0 бит/сек
ElementCount : 8
Размер потока : 199 байт (0%)
Язык : German
Default : Нет
Forced : Нет

Меню
00:00:00.000 : en:00:00:00.000
00:04:09.458 : en:00:04:09.458
00:11:51.000 : en:00:11:51.000
00:19:54.083 : en:00:19:54.083
00:27:33.000 : en:00:27:33.000
00:33:59.792 : en:00:33:59.792
00:38:04.917 : en:00:38:04.917
00:45:04.625 : en:00:45:04.625
00:55:43.125 : en:00:55:43.125
01:05:46.542 : en:01:05:46.542
01:14:01.792 : en:01:14:01.792
01:16:34.917 : en:01:16:34.917
01:22:24.250 : en:01:22:24.250
01:28:49.042 : en:01:28:49.042
01:36:09.333 : en:01:36:09.333
01:41:21.917 : en:01:41:21.917

pb.wtf



Скачать Калашников через торрент https://i1.imageban.ru/out/2020/04/27/eacd05d6885330d1f92b9ad27a825538.png Скачать фильм Калашников через торрент бесплантно в хорошем качестве Описание: Калашников. Все знают эту фамилию, но не все знают, какой долгий и тернистый путь прошел парень-самоучка, чтобы в 28 создать ... 6.4 10 10
Info! Золотая раздача, скачанное не засчитывается.
Торрент: Зарегистрирован [2020-10-17 19:20] · скачан: 106 раз
Статус: √ проверено
Размер: 8.18 GB
Как cкачать? Как скачать Калашников через торрент | qTorrent

% Раздел Тема Автор DL S | L
Наши новые фильмы 2018-2019 [ 1.46 GB ] Калашников [2020 биография история BDRip] [Русский] [] Twi7ter Скачать
71 | 3
Наши фильмы (HD, WEB-DL 720p, 1080p) [ 7.79 GB ] Калашников [2020 биография история BDRip-HEVC 1080p ] [GER Transfer / ] bober100 Скачать
10 | 0
Наши фильмы (Blu-ray, BD-Remux, HDDVD) [ 28.72 GB ] Калашников [2020 биография история BD Remux 1080p] [GER Transfer / ] bober100 Скачать
1 | 3
Наши фильмы (Blu-ray, BD-Remux, HDDVD) [ 35.48 GB ] Калашников [2020 биография история Blu-ray 1080p] [GER Transfer / ] bober100 Скачать
1 | 0
Наши фильмы (HD, WEB-DL 720p, 1080p) [ 4.01 GB ] Калашников [2020 биография история WEB-DL 1080p] bober100 Скачать
13 | 0
Наши новые фильмы 2018-2019 [ 1.46 GB ] Калашников [2020 биография история BDRip-AVC] [GER Transfer / ] bober100 Скачать
2 | 0
Наши новые фильмы 2018-2019 [ 2.18 GB ] Калашников [2020 биография история BDRip-AVC] [GER Transfer / ] bober100 Скачать
6 | 0


Последний раз редактировалось: bober100 (2020-10-19 04:02), всего редактировалось 1 раз

28-11-2019 20:33  

Отключить всю рекламу на сайте

17-10-2020 19:40 Калашников Скачать торрент  

блабла... смотрите, вот мы снимаем киношку про чувака , который сделал стране миллиарды, но сдох в нищите потому что стране на него насрать....pb.wtf



17-10-2020 20:44 Калашников Скачать торрент  

Koshmarwin писал(а):

блабла... смотрите, вот мы снимаем киношку про чувака , который сделал стране миллиарды, но сдох в нищите потому что стране на него насрать....

У Калашникова пенсия была больше в 20 раз чем у тебя зарплата .pb.wtf



18-10-2020 02:38 Калашников Скачать торрент  

Koshmarwin писал(а):

блабла... смотрите, вот мы снимаем киношку про чувака , который сделал стране миллиарды, но сдох в нищите потому что стране на него насрать....

этой стране на всех насрать, кто не депутан, чудья или если ты не особа, приближенная к императору. в большинстве других стран так жеpb.wtf



18-10-2020 10:17 Калашников Скачать торрент  

Koshmarwin писал(а):

блабла... смотрите, вот мы снимаем киношку про чувака , который сделал стране миллиарды, но сдох в нищите потому что стране на него насрать....

Диванный эксперт опять воздух испортил
"у Калашникова максимальная военная пенсия, ему доплачивают за звание "Почетный гражданин Ижевска" 10 "минималок" и столько же - персональная пенсия от президента России. Михаил Тимофеевич - владелец евроазиатского патента на свою продукцию. На завод по этому патенту регулярно приходят деньги. Сумма зависит от количества выпущенной продукции и от совершенных сделок. Калашников получает 25% этой суммы"pb.wtf



    Дорогой пользователь! Огромная просьба, поблагодарите релизера, оцените раздачу и оставьте свои комментарий, если Вы скачали Калашников через торрент бесплатно! Внесите свою лепту в развитие PiratBit!
    Комментировать посты могут только пользователи прошедшие не сложную регистрацию
    Показать сообщения:    

    Калашников через торрент
    Скачать бесплатно Калашников
    Калашников скачать торрент
    Калашников смотреть онлайн
    Cкачать фильм Калашников бесплатно
    Калашников скачать торрент в хорошем качестве
    Калашников смотреть онлайн бесплатно в хорошем качестве


    Вы не можете начинать темы
    Вы не можете отвечать на сообщения
    Вы не можете редактировать свои сообщения
    Вы не можете удалять свои сообщения
    Вы не можете голосовать в опросах
    Вы не можете прикреплять файлы к сообщениям
    Вы можете скачивать файлы