Ссылка на приватное зеркало нашего сайта всего за 1$. Внимание количество ограничено!!!

2 сезон

iTunes

1 сезон

1

iTunes

iTunes

iTunes

1 сезон

RePack

30

ИГРА 18+

pack

ВАЖНО

!!Акция!!

Alien_RageХит недели

RePack

MK11
pack

Забери бонус

RePack

jed

!!Акция!!

Alien_Rage

RePack

fifa19

RePack

Assassins Creed: Odyssey

RePack

NEED FOR SPEED™ PAYBACK

4 сезон

9 сезон

Бесстыжие 9 сезон

Все сериалы

все сериалы на PB.wtf

RePack

FAR CRY 5
  

Адреналин 2: Высокое напряжение / Crank: High Voltage (Марк Невелдайн, Брайан Тейлор) [2009, фэнтези, боевик, драма, комедия, криминал, BDRip 1080p] DUB (rus, ukr) +MVO (rus, ukr) +2xAVO pb.wtf

Адреналин 2: Высокое напряжение через торрент pb.wtf

Качают: 1 [ 0 KB/s ]
Размер: 14.41 GB | Добавлен: 5 д. назад | Торрент скачан:20 раз
Скачать  

17-10-2020 19:55 Адреналин 2: Высокое напряжение Скачать торрент  

Адреналин 2: Высокое напряжение | Crank: High Voltage
Год выпуска: 2009
Страна: США
Выпущено: Lakeshore Entertainment, Lionsgate
Жанр: фэнтези, боевик, драма, комедия, криминал
Продолжительность: 01:35:50
Перевод:
Профессиональный (полное дублирование) |RUS BD|
+ Профессиональный (Многоголосый, закадровый) |ТНТ|
+ Авторский одноголосый |Д.Пучков|
+ Авторский одноголосый |Ю.Немахов|
+ Украинский |Дубляж|
+ Украинский Многоголосый закадровый, |ТакТреба Продакшн|
Субтитры: Russian (x2), Ukrainian (forced), English

Режиссер: Марк Невелдайн, Брайан Тейлор

rating

В ролях: Джейсон Стэтхэм, Эми Смарт, Клифтон Коллинз мл., Бай Лин, Дэвид Кэррадайн, Кори Хэйм, Эфрен Рамирез, Дуайт Йоакам, Гленн Хоуертон, Холли Вебер

Описание: Он умер, но обещал вернуться! Не чудом, а благодаря современным медицинским технологиям Чев Челиос получает новое сердце и новый шанс отомстить своим врагам. Теперь для постоянной подзарядки ему требуется электрический разряд мощностью не меньше, чем у автомобильного аккумулятора.

Качество: BDRip 1080p
Формат: MKV

Видео: MPEG-4 AVC, 1920x1040 at 23.976 fps, x264, ~16.7 Mbps avg
Аудио #01 Russian: 48 kHz, DTS 5.1, ~1536 kbps avg |Дубляж, RUS BD|
Аудио #02 Russian: 48 kHz, AC3, 2/0 (L,R) ch, ~192.00 kbps avg |Многоголосый закадровый, ТНТ|
Аудио #03 Russian: 48 kHz, AC3, 3/2 (L,C,R,l,r) + LFE ch, ~384.00 kbps avg |Одноголосый закадровый, Д. Пучков|
Аудио #04 Russian: 48 kHz, AC3, 3/2 (L,C,R,l,r) + LFE ch, ~448.00 kbps avg |Одноголосый закадровый, Ю. Немахов|
Аудио #05 Ukrainian: 48 kHz, AC3, 3/2 (L,C,R,l,r) + LFE ch, ~384.00 kbps avg |Дубляж|
Аудио #06 Ukrainian: 48 kHz, AC3, 3/2 (L,C,R,l,r) + LFE ch, ~384.00 kbps avg |Многоголосый закадровый, ТакТреба Продакшн|
Аудио #07 English: 48 kHz, DTS 5.1, ~1536 kbps avg
скриншот  скриншот  скриншот  скриншот  скриншот  

Общее
Уникальный идентификатор : 254408880117754874210118835634794211357 (0xBF655E37748E42A6830C4410EED9281D)
Полное имя : D:ФільмиCrank.High.Voltage.2009.1080p.BluRay.AC3.DTS.x264.mkv
Формат : Matroska
Версия формата : Version 4 / Version 2
Размер файла : 14,4 Гбайт
Продолжительность : 1 ч. 35 м.
Общий поток : 21,5 Мбит/сек
Название фильма : Crank 2: High Voltage (2009) - Encode by SbR
Дата кодирования : UTC 2017-07-17 08:57:09
Программа кодирования : mkvmerge v7.0.0 ('Where We Going') 64bit built on Jun 9 2014 15:16:27
Библиотека кодирования : libebml v1.3.0 + libmatroska v1.4.1
Обложка : Yes
Attachments : cover.jpg / xlog.txt

Видео
Идентификатор : 1
Формат : AVC
Формат/Информация : Advanced Video Codec
Профиль формата : High@L4.1
Параметр CABAC формата : Да
Параметр RefFrames формата : 4 кадра
Идентификатор кодека : V_MPEG4/ISO/AVC
Продолжительность : 1 ч. 35 м.
Битрейт : 16,7 Мбит/сек
Ширина : 1920 пикселей
Высота : 1040 пикселей
Соотношение сторон : 1,85:1
Режим частоты кадров : Постоянный
Частота кадров : 23,976 кадра/сек
Цветовое пространство : YUV
Субдискретизация насыщенности : 4:2:0
Битовая глубина : 8 бит
Тип развёртки : Прогрессивная
Бит/(Пиксели*Кадры) : 0.349
Размер потока : 11,2 Гбайт (78%)
Заголовок : x264
Библиотека кодирования : x264 core 68 r1183M f21daff
Настройки программы : cabac=1 / ref=4 / deblock=1:-3:-3 / analyse=0x3:0x113 / me=umh / subme=9 / psy_rd=1.0:0.0 / mixed_ref=1 / me_range=32 / chroma_me=1 / trellis=2 / 8x8dct=1 / cqm=0 / deadzone=21,11 / chroma_qp_offset=-2 / threads=6 / nr=0 / decimate=1 / mbaff=0 / bframes=6 / b_pyramid=1 / b_adapt=2 / b_bias=0 / direct=3 / wpredb=1 / keyint=250 / keyint_min=25 / scenecut=40 / rc=2pass / bitrate=16706 / ratetol=1.0 / qcomp=0.60 / qpmin=10 / qpmax=51 / qpstep=4 / cplxblur=20.0 / qblur=0.5 / ip_ratio=1.40 / pb_ratio=1.30 / aq=1:0.80
Язык : English
Default : Да
Forced : Нет

Аудио #1
Идентификатор : 2
Формат : DTS
Формат/Информация : Digital Theater Systems
Режим : 16
Параметр Endianness формата : Big
Идентификатор кодека : A_DTS
Продолжительность : 1 ч. 35 м.
Вид битрейта : Постоянный
Битрейт : 1509 Кбит/сек
Каналы : 6 каналов
Расположение каналов : Front: L C R, Side: L R, LFE
Частота : 48,0 КГц
Частота кадров : 93,750 кадра/сек (512 SPF)
Битовая глубина : 24 бит
Метод сжатия : С потерями
Размер потока : 1,01 Гбайт (7%)
Заголовок : Дубляж
Язык : Russian
Default : Да
Forced : Нет

Аудио #2
Идентификатор : 3
Формат : AC-3
Формат/Информация : Audio Coding 3
Параметр Endianness формата : Big
Идентификатор кодека : A_AC3
Продолжительность : 1 ч. 35 м.
Вид битрейта : Постоянный
Битрейт : 192 Кбит/сек
Каналы : 2 канала
Расположение каналов : Front: L R
Частота : 48,0 КГц
Частота кадров : 31,250 кадров/сек (1536 SPF)
Битовая глубина : 16 бит
Метод сжатия : С потерями
Размер потока : 131 Мбайт (1%)
Заголовок : ТНТ
Язык : Russian
ServiceKind/String : Complete Main
Default : Нет
Forced : Нет

Аудио #3
Идентификатор : 4
Формат : AC-3
Формат/Информация : Audio Coding 3
Параметр Endianness формата : Big
Идентификатор кодека : A_AC3
Продолжительность : 1 ч. 35 м.
Вид битрейта : Постоянный
Битрейт : 384 Кбит/сек
Каналы : 6 каналов
Расположение каналов : Front: L C R, Side: L R, LFE
Частота : 48,0 КГц
Частота кадров : 31,250 кадров/сек (1536 SPF)
Битовая глубина : 16 бит
Метод сжатия : С потерями
Размер потока : 263 Мбайт (2%)
Заголовок : Пучков
Язык : Russian
ServiceKind/String : Complete Main
Default : Нет
Forced : Нет

Аудио #4
Идентификатор : 5
Формат : AC-3
Формат/Информация : Audio Coding 3
Параметр Endianness формата : Big
Идентификатор кодека : A_AC3
Продолжительность : 1 ч. 35 м.
Вид битрейта : Постоянный
Битрейт : 448 Кбит/сек
Каналы : 6 каналов
Расположение каналов : Front: L C R, Side: L R, LFE
Частота : 48,0 КГц
Частота кадров : 31,250 кадров/сек (1536 SPF)
Битовая глубина : 16 бит
Метод сжатия : С потерями
Размер потока : 307 Мбайт (2%)
Заголовок : Немахов
Язык : Russian
ServiceKind/String : Complete Main
Default : Нет
Forced : Нет

Аудио #5
Идентификатор : 6
Формат : AC-3
Формат/Информация : Audio Coding 3
Параметр Endianness формата : Big
Идентификатор кодека : A_AC3
Продолжительность : 1 ч. 35 м.
Вид битрейта : Постоянный
Битрейт : 384 Кбит/сек
Каналы : 6 каналов
Расположение каналов : Front: L C R, Side: L R, LFE
Частота : 48,0 КГц
Частота кадров : 31,250 кадров/сек (1536 SPF)
Битовая глубина : 16 бит
Метод сжатия : С потерями
Размер потока : 263 Мбайт (2%)
Заголовок : Дубляж
Язык : Ukrainian
ServiceKind/String : Complete Main
Default : Нет
Forced : Нет

Аудио #6
Идентификатор : 7
Формат : AC-3
Формат/Информация : Audio Coding 3
Параметр Endianness формата : Big
Идентификатор кодека : A_AC3
Продолжительность : 1 ч. 35 м.
Вид битрейта : Постоянный
Битрейт : 384 Кбит/сек
Каналы : 6 каналов
Расположение каналов : Front: L C R, Side: L R, LFE
Частота : 48,0 КГц
Частота кадров : 31,250 кадров/сек (1536 SPF)
Битовая глубина : 16 бит
Метод сжатия : С потерями
Размер потока : 263 Мбайт (2%)
Заголовок : ТакТреба Продакшн
Язык : Ukrainian
ServiceKind/String : Complete Main
Default : Нет
Forced : Нет

Аудио #7
Идентификатор : 8
Формат : DTS
Формат/Информация : Digital Theater Systems
Режим : 16
Параметр Endianness формата : Big
Идентификатор кодека : A_DTS
Продолжительность : 1 ч. 35 м.
Вид битрейта : Постоянный
Битрейт : 1509 Кбит/сек
Каналы : 6 каналов
Расположение каналов : Front: L C R, Side: L R, LFE
Частота : 48,0 КГц
Частота кадров : 93,750 кадра/сек (512 SPF)
Битовая глубина : 24 бит
Метод сжатия : С потерями
Размер потока : 1,01 Гбайт (7%)
Язык : English
Default : Нет
Forced : Нет

Текст #1
Идентификатор : 9
Формат : UTF-8
Идентификатор кодека : S_TEXT/UTF8
Идентификатор кодека/Информация : UTF-8 Plain Text
Продолжительность : 1 ч. 34 м.
Битрейт : 68 бит/сек
ElementCount : 958
Размер потока : 47,4 Кбайт (0%)
Язык : Russian
Default : Нет
Forced : Нет

Текст #2
Идентификатор : 10
Формат : UTF-8
Идентификатор кодека : S_TEXT/UTF8
Идентификатор кодека/Информация : UTF-8 Plain Text
Продолжительность : 1 ч. 33 м.
Битрейт : 59 бит/сек
ElementCount : 652
Размер потока : 40,4 Кбайт (0%)
Язык : Russian
Default : Нет
Forced : Нет

Текст #3
Идентификатор : 11
Формат : UTF-8
Идентификатор кодека : S_TEXT/UTF8
Идентификатор кодека/Информация : UTF-8 Plain Text
Продолжительность : 8 м. 5 с.
Битрейт : 33 бит/сек
ElementCount : 48
Размер потока : 2,01 Кбайт (0%)
Заголовок : Forced
Язык : Ukrainian
Default : Нет
Forced : Нет

Текст #4
Идентификатор : 12
Формат : UTF-8
Идентификатор кодека : S_TEXT/UTF8
Идентификатор кодека/Информация : UTF-8 Plain Text
Продолжительность : 1 ч. 33 м.
Битрейт : 42 бит/сек
ElementCount : 1125
Размер потока : 29,5 Кбайт (0%)
Язык : English
Default : Нет
Forced : Нет

Меню
00:00:00.000 : en:Implausible
00:05:55.897 : en:Famous Heart
00:09:38.495 : en:Wired Up
00:15:22.922 : en:Jump Start
00:20:45.453 : en:Street Race
00:25:21.979 : en:Social Club
00:29:07.621 : en:Johnny Vang
00:36:20.720 : en:New Eve
00:42:15.658 : en:Police Bust
00:47:47.114 : en:Push It
00:50:10.090 : en:Out of Control
00:54:15.043 : en:Causing Friction
01:01:00.740 : en:Catching Up
01:06:31.988 : en:Breaking News
01:15:19.432 : en:Dropping the Hammer
01:20:22.276 : en:Emergency Stop

pb.wtf



Скачать Адреналин 2: Высокое напряжение через торрент http://i103.fastpic.ru/big/2018/0224/57/9e1d2eb5bcbe6d782eab44d06639b457.png Скачать фильм Адреналин 2: Высокое напряжение через торрент бесплантно в хорошем качестве Описание: Он умер, но обещал вернуться! Не чудом, а благодаря современным медицинским технологиям Чев Челиос получает новое сердце и новый ... 10 10 3
Торрент: Зарегистрирован [2020-10-17 19:55] · скачан: 20 раз
Статус: √ проверено
Размер: 14.41 GB
Как cкачать? Как скачать Адреналин 2: Высокое напряжение через торрент | qTorrent

28-11-2019 20:33  

Отключить всю рекламу на сайте

    Дорогой пользователь! Огромная просьба, поблагодарите релизера, оцените раздачу и оставьте свои комментарий, если Вы скачали Адреналин 2: Высокое напряжение через торрент бесплатно! Внесите свою лепту в развитие PiratBit!
    Комментировать посты могут только пользователи прошедшие не сложную регистрацию
    Показать сообщения:    

    Адреналин 2: Высокое напряжение через торрент
    Скачать бесплатно Адреналин 2: Высокое напряжение
    Адреналин 2: Высокое напряжение скачать торрент
    Адреналин 2: Высокое напряжение смотреть онлайн
    Cкачать фильм Адреналин 2: Высокое напряжение бесплатно
    Адреналин 2: Высокое напряжение скачать торрент в хорошем качестве
    Адреналин 2: Высокое напряжение смотреть онлайн бесплатно в хорошем качестве


    Вы не можете начинать темы
    Вы не можете отвечать на сообщения
    Вы не можете редактировать свои сообщения
    Вы не можете удалять свои сообщения
    Вы не можете голосовать в опросах
    Вы не можете прикреплять файлы к сообщениям
    Вы можете скачивать файлы