Ссылка на приватное зеркало нашего сайта всего за 1$. Внимание количество ограничено!!!

2 сезон

iTunes

1 сезон

1

iTunes

iTunes

iTunes

1 сезон

RePack

30

ИГРА 18+

pack

ВАЖНО

!!Акция!!

Alien_RageХит недели

RePack

MK11
pack

Забери бонус

RePack

jed

!!Акция!!

Alien_Rage

RePack

fifa19

RePack

Assassins Creed: Odyssey

RePack

NEED FOR SPEED™ PAYBACK

4 сезон

9 сезон

Бесстыжие 9 сезон

Все сериалы

все сериалы на PB.wtf

RePack

FAR CRY 5
  

Каджиллионер / Kajillionaire (Миранда Джулай) [2020, Драма, криминал, WEB-DLRip-AVC] [MVO] [AlphaProject] от MediaBit pb.wtf

Каджиллионер через торрент pb.wtf

Раздают: 9 [ 61 KB/s ] Качают: 1 [ 0 KB/s ]
Размер: 1.46 GB | Добавлен: 5 д. назад | Торрент скачан:93 раза
Скачать  

17-10-2020 20:46 Каджиллионер Скачать торрент  


Каджиллионер / Kajillionaire
Информация о фильме:
Название: Каджиллионер
Оригинальное название: Kajillionaire
Год выхода: 2020
Жанр: Драма, криминал
Режиссер: Миранда Джулай

В ролях: Эван Рэйчел Вуд, Дебра Уингер, Джина Родригес, Ричард Дженкинс, Адам Бартли, Диана-Мария Рива, Патриша Белчер, Да Вин Джой Рэндольф, Марк Иванир, Мадлен Когхлан

Описание: Главную героиню на протяжении последних 26 лет упорно тренируют обманывать, красть и мошенничать, причём её собственные родители. Сами они, понятное дело, промышляют тем же, и дочка становится без преувеличения главной звездой их странной волосатой банды. Но внезапно идеально отлаженный механизм даёт сбой, когда к семейству присоединяется горячая и дико милая незнакомка...



Страна: США
Студия: Annapurna Pictures, Plan B Entertainment
Продолжительность: 01:44:49
Перевод: Любительский (многоголосый, закадровый) - AlphaProject



Информация о файле:
Кодек: AVC
Формат: MKV
Качество: WEB-DLRip-AVC
Видео: MPEG-4 AVC, 1024x428 (2.40:1), 23.976 fps, 1418 kbps, 0.135
Аудио RU: AC3, 2 ch, 48 kHz, 192 kbps
Аудио EN: AC3, 6 ch, 48 kHz, 384 kbps
Субтитры: Английские
Навигация по главам: Нет

General
Unique ID : 53182972260401174707756423187544372698 (0x2802AAFA3C255292C7F344720C5F75DA)
Complete name : D:uTorrentРипы_от_wolf1245_MediaBitКаджиллионер - Kajillionaire (2020) from wolf1245 & MediaBit .mkv
Format : Matroska
Format version : Version 4
File size : 1.46 GiB
Duration : 1 h 44 min
Overall bit rate : 1 995 kb/s
Movie name : Каджиллионер / Kajillionaire (2020) from wolf1245 & MediaBit
Encoded date : UTC 2020-10-17 20:34:04
Writing application : mkvmerge v51.0.0 ('I Wish') 64-bit
Writing library : libebml v1.4.0 + libmatroska v1.6.2
Video
ID : 1
Format : AVC
Format/Info : Advanced Video Codec
Format profile : High@L4.1
Format settings : CABAC / 12 Ref Frames
Format settings, CABAC : Yes
Format settings, Reference frames : 12 frames
Codec ID : V_MPEG4/ISO/AVC
Duration : 1 h 44 min
Bit rate : 1 418 kb/s
Width : 1 024 pixels
Height : 428 pixels
Display aspect ratio : 2.40:1
Frame rate mode : Constant
Frame rate : 23.976 (24000/1001) FPS
Color space : YUV
Chroma subsampling : 4:2:0
Bit depth : 8 bits
Scan type : Progressive
Bits/(Pixel*Frame) : 0.135
Stream size : 1.04 GiB (71%)
Title : wolf1245 & MediaBit
Writing library : x264 core 157 r2958 57baac4
Encoding settings : cabac=1 / ref=12 / deblock=1:-3:-3 / analyse=0x3:0x133 / me=umh / subme=11 / psy=1 / psy_rd=1.02:0.06 / mixed_ref=1 / me_range=48 / chroma_me=1 / trellis=2 / 8x8dct=1 / cqm=0 / deadzone=21,11 / fast_pskip=0 / chroma_qp_offset=-3 / threads=10 / lookahead_threads=2 / sliced_threads=0 / nr=0 / decimate=0 / interlaced=0 / bluray_compat=0 / constrained_intra=0 / bframes=12 / b_pyramid=2 / b_adapt=2 / b_bias=0 / direct=3 / weightb=1 / open_gop=0 / weightp=2 / keyint=240 / keyint_min=24 / scenecut=40 / intra_refresh=0 / rc_lookahead=60 / rc=2pass / mbtree=0 / bitrate=1418 / ratetol=1.0 / qcomp=0.60 / qpmin=0 / qpmax=69 / qpstep=4 / cplxblur=20.0 / qblur=0.5 / vbv_maxrate=50000 / vbv_bufsize=62500 / nal_hrd=none / filler=0 / ip_ratio=1.40 / pb_ratio=1.30 / aq=2:0.80
Language : English
Default : Yes
Forced : No
Color range : Limited
Color primaries : BT.709
Transfer characteristics : BT.709
Matrix coefficients : BT.709
Audio #1
ID : 2
Format : AC-3
Format/Info : Audio Coding 3
Commercial name : Dolby Digital
Codec ID : A_AC3
Duration : 1 h 44 min
Bit rate mode : Constant
Bit rate : 192 kb/s
Channel(s) : 2 channels
Channel layout : L R
Sampling rate : 48.0 kHz
Frame rate : 31.250 FPS (1536 SPF)
Compression mode : Lossy
Stream size : 144 MiB (10%)
Title : MVO [AlphaProject] MediaBit
Language : Russian
Service kind : Complete Main
Default : Yes
Forced : No
Audio #2
ID : 3
Format : AC-3
Format/Info : Audio Coding 3
Commercial name : Dolby Digital
Codec ID : A_AC3
Duration : 1 h 44 min
Bit rate mode : Constant
Bit rate : 384 kb/s
Channel(s) : 6 channels
Channel layout : L R C LFE Ls Rs
Sampling rate : 48.0 kHz
Frame rate : 31.250 FPS (1536 SPF)
Compression mode : Lossy
Stream size : 288 MiB (19%)
Title : ORIGINAL
Language : English
Service kind : Complete Main
Default : No
Forced : No
Text
ID : 4
Format : UTF-8
Codec ID : S_TEXT/UTF8
Codec ID/Info : UTF-8 Plain Text
Duration : 1 h 35 min
Bit rate : 54 b/s
Count of elements : 1435
Stream size : 38.4 KiB (0%)
Language : English
Default : Yes
Forced : No
Релиз от: & &
pb.wtf



Скачать Каджиллионер через торрент https://a.radikal.ru/a08/2010/ce/c444daad44ea.jpg Скачать фильм Каджиллионер через торрент бесплантно в хорошем качестве Описание: Главную героиню на протяжении последних 26 лет упорно тренируют обманывать, красть и мошенничать, причём её собственные ... 10 10 5
Торрент: Зарегистрирован [2020-10-17 20:46] · скачан: 93 раз
Статус: T временная
Размер: 1.46 GB
Как cкачать? Как скачать Каджиллионер через торрент | qTorrent

28-11-2019 20:33  

Отключить всю рекламу на сайте

    Дорогой пользователь! Огромная просьба, поблагодарите релизера, оцените раздачу и оставьте свои комментарий, если Вы скачали Каджиллионер через торрент бесплатно! Внесите свою лепту в развитие PiratBit!
    Комментировать посты могут только пользователи прошедшие не сложную регистрацию
    Показать сообщения:    

    Каджиллионер через торрент
    Скачать бесплатно Каджиллионер
    Каджиллионер скачать торрент
    Каджиллионер смотреть онлайн
    Cкачать фильм Каджиллионер бесплатно
    Каджиллионер скачать торрент в хорошем качестве
    Каджиллионер смотреть онлайн бесплатно в хорошем качестве


    Вы не можете начинать темы
    Вы не можете отвечать на сообщения
    Вы не можете редактировать свои сообщения
    Вы не можете удалять свои сообщения
    Вы не можете голосовать в опросах
    Вы не можете прикреплять файлы к сообщениям
    Вы можете скачивать файлы