Ссылка на приватное зеркало нашего сайта всего за 1$. Внимание количество ограничено!!!

2 сезон

iTunes

1 сезон

1

2 сезон

2 сезон

iTunes

1 сезон

RePack

30

Ultimate

ВАЖНО

ИГРА 18+

pack

RePack

MK11
pack

Забери бонус

RePack

jed

!!Акция!!

Alien_Rage

RePack

fifa19

RePack

Assassins Creed: Odyssey

RePack

NEED FOR SPEED™ PAYBACK

4 сезон

9 сезон

Бесстыжие 9 сезон

Все сериалы

все сериалы на PB.wtf

RePack

FAR CRY 5
  

Звёздный путь: Дискавери / Star Trek: Discovery / Сезон: 3 / Серии: 1-7 из 13 (Олатунде Осунсанми, Джонатан Фрейкс, Дуглас Арниокоски) [2020, фантастика, боевик, драма, приключения, WEB-DLRip] MVO [LostFilm] pb.wtf

Звёздный путь: Дискавери через торрент pb.wtf

Раздают: 1 [ 303 KB/s ] Качают: 3 [ 0 KB/s ]
Размер: 4.45 GB | Добавлен: 23 ч. назад | Торрент скачан:14 раз
Скачать  

18-10-2020 05:21 Звёздный путь: Дискавери Скачать торрент  

Звёздный путь: Дискавери | Star Trek: Discovery
«At the edge of the universe, discovery begins»
Год выпуска: 2020
Страна: США
Выпущено: CBS Television Studios, Living Dead Guy Productions, Roddenberry Entertainment
Жанр: фантастика, боевик, драма, приключения
Продолжительность: ~00:45:00
Перевод: Профессиональный (многоголосый) | студия LostFilm
Субтитры: | русские (TeamNotDead) | английские |

Режиссер: Олатунде Осунсанми, Джонатан Фрейкс, Дуглас Арниокоски

rating

В ролях: Сонекуа Мартин-Грин (Sonequa Martin-Green), Даг Джонс (Doug Jones), Энтони Рэпп (Anthony Rapp), Мэри Вайсман (Mary Wiseman), Эмили Куттс (Emily Coutts), Шазад Латиф (Shazad Latif), Патрик Квок-Чун (Patrick Kwok-Choon), Джулианна Гроссман (Julianne Grossman), Ронни Роу (Ronnie Rowe), Уилсон Крус (Wilson Cruz), Сара Митич (Sara Mitich)

Описание: За десять лет до начала первой миссии капитана Кирка исследовать новые миры и формы жизни отправляется экипаж корабля «Шэньчжоу». На борту находятся капитан Филиппа Георгиу (Мишель Йео), ее первая помощница Майкл Бернэм (Сонекуа Мартин-Грин), а также несколько представителей нечеловеческих видов. Вместе они движутся навстречу мечте о мире, в котором любые существа смогут найти общий язык. Но оказывается, что далеко не все инопланетные расы во вселенной настроены так же дружелюбно. Между Федерацией и древним клингонским кланом назревает серьезный конфликт, ради разрешения которого экипажу корабля придется забыть о доме, преодолеть величайшие испытания и пойти на серьезные жертвы. Но будущее, о котором они мечтают, лишенное страха и ставящее открытия выше завоеваний, стоит того, чтобы отринуть любые сомнения и смело пойти туда, куда не ступала нога человека...

Качество: WEB-DLRip
Формат: AVI

Видео: ~ 1400 kbps, 720x304, 23.976 fps
Аудио Rus: MP3 | 48.0 KHz | 2 ch | 128 kbps |LostFilm |
Аудио Eng: MP3 | 48.0 KHz | 2 ch | 128 kbps |Original|
скриншот  скриншот  скриншот  скриншот  

Общее
Полное имя : C:\Star Trek Discovery (Season 03) LostFilm\Star.Trek.Discovery.S03E01.WEB-DLRip.Rus.Eng.LostFilm.avi
Формат : AVI
Формат/Информация : Audio Video Interleave
Размер файла : 651 Мбайт
Продолжительность : 52 м. 47 с.
Общий поток : 1723 Кбит/сек
Программа кодирования : VirtualDubMod 1.5.10.3 | www.virtualdub-fr.org || (build 2550/release)
Библиотека кодирования : VirtualDubMod build 2550/release

Видео
Идентификатор : 0
Формат : MPEG-4 Visual
Профиль формата : Advanced Simple@L5
Настройки формата : BVOP1 / Custom Matrix
Параметр BVOP формата : 1
Параметр QPel формата : Нет
Параметр GMC формата : Без точки перехода
Параметр матрицы формата : Выборочная
Идентификатор кодека : XVID
Идентификатор кодека/Подсказка : XviD
Продолжительность : 52 м. 47 с.
Битрейт : 1388 Кбит/сек
Ширина : 720 пикселей
Высота : 304 пикселя
Соотношение сторон : 2,35:1
Частота кадров : 24,000 кадра/сек
Цветовое пространство : YUV
Субдискретизация насыщенности : 4:2:0
Битовая глубина : 8 бит
Тип развёртки : Прогрессивная
Метод сжатия : С потерями
Бит/(Пиксели*Кадры) : 0.264
Размер потока : 524 Мбайт (81%)
Библиотека кодирования : XviD 73

Аудио #1
Идентификатор : 1
Формат : MPEG Audio
Версия формата : Version 1
Профиль формата : Layer 3
Настройки формата : Joint stereo / MS Stereo
Идентификатор кодека : 55
Идентификатор кодека/Подсказка : MP3
Продолжительность : 52 м. 47 с.
Вид битрейта : Постоянный
Битрейт : 128 Кбит/сек
Каналы : 2 канала
Частота : 48,0 КГц
Метод сжатия : С потерями
Размер потока : 48,3 Мбайт (7%)
Выравнивание : Соединение по промежуткам

Аудио #2
Идентификатор : 2
Формат : MPEG Audio
Версия формата : Version 1
Профиль формата : Layer 3
Настройки формата : Joint stereo / MS Stereo
Идентификатор кодека : 55
Идентификатор кодека/Подсказка : MP3
Продолжительность : 52 м. 47 с.
Вид битрейта : Постоянный
Битрейт : 128 Кбит/сек
Каналы : 2 канала
Частота : 48,0 КГц
Метод сжатия : С потерями
Размер потока : 48,3 Мбайт (7%)
Выравнивание : Соединение по промежуткам

Когда раздача ведётся путём добавления новых серий, при каждом добавлении создётся новый торрент. Чтобы начать докачку новой серии, пользователям необходимо сделать следующее:
(1) остановить скачивание,
(2) удалить старый торрент у себя из клиента (старые серии удалять не надо),
(3) скачать новый торрент и запустить его у себя в клиенте вместо старого, при этом указать клиенту путь в старую папку, куда и должно происходить скачивание новых серий.
Ваш клиент при этом должен произвести хеширование (проверку) старой папки (если не производит сам - помогите ему сделать это), и будет докачивать только те серии, которых у вас ещё нет. Старые серии при этом не удаляются, а продолжают раздаваться!
Eсли вы уже удалили старые серии, то предотвратить повторную закачку старых серий можно, отжав галочку в соответсвующих местах при запуске нового торрента. По возможности, желательно не удалять старые серии как можно дольше, чтобы релизёр не столько продолжал раздавать старые серии, а смог сконцентрироваться на новых.

pb.wtf



Скачать Звёздный путь: Дискавери через торрент https://i2.imageban.ru/out/2020/10/16/11de03c5bc02c80fa345663c0cad753b.png Скачать фильм Звёздный путь: Дискавери через торрент бесплантно в хорошем качестве Описание: За десять лет до начала первой миссии капитана Кирка исследовать новые миры и формы жизни отправляется экипаж корабля «Шэньчжоу». ... 10 10 6
Торрент: Зарегистрирован [2020-11-29 03:03] · скачан: 14 раз
Статус: √ проверено
Размер: 4.45 GB
Как cкачать? Как скачать Звёздный путь: Дискавери через торрент | qTorrent

28-11-2019 20:33  

Отключить всю рекламу на сайте

    Дорогой пользователь! Огромная просьба, поблагодарите релизера, оцените раздачу и оставьте свои комментарий, если Вы скачали Звёздный путь: Дискавери через торрент бесплатно! Внесите свою лепту в развитие PiratBit!
    Комментировать посты могут только пользователи прошедшие не сложную регистрацию
    Показать сообщения:    

    Звёздный путь: Дискавери через торрент
    Скачать бесплатно Звёздный путь: Дискавери
    Звёздный путь: Дискавери скачать торрент
    Звёздный путь: Дискавери смотреть онлайн
    Cкачать фильм Звёздный путь: Дискавери бесплатно
    Звёздный путь: Дискавери скачать торрент в хорошем качестве
    Звёздный путь: Дискавери смотреть онлайн бесплатно в хорошем качестве


    Вы не можете начинать темы
    Вы не можете отвечать на сообщения
    Вы не можете редактировать свои сообщения
    Вы не можете удалять свои сообщения
    Вы не можете голосовать в опросах
    Вы не можете прикреплять файлы к сообщениям
    Вы можете скачивать файлы