Ссылка на приватное зеркало нашего сайта всего за 1$. Внимание количество ограничено!!!

2 сезон

iTunes

1 сезон

1

2 сезон

2 сезон

iTunes

1 сезон

RePack

30

Ultimate

ВАЖНО

ИГРА 18+

pack

RePack

MK11
pack

Забери бонус

RePack

jed

!!Акция!!

Alien_Rage

RePack

fifa19

RePack

Assassins Creed: Odyssey

RePack

NEED FOR SPEED™ PAYBACK

4 сезон

9 сезон

Бесстыжие 9 сезон

Все сериалы

все сериалы на PB.wtf

RePack

FAR CRY 5
  

У дьявола есть имя / The Devil Has a Name (Эдвард Джеймс Олмос) [2019, Триллер, драма, WEB-DL 1080p] MVO [@MUZOBOZ@] pb.wtf

У дьявола есть имя через торрент pb.wtf

Раздают: 1 [ 0 KB/s ]
Размер: 4.47 GB | Добавлен: 1 мес. 5 д. назад | Торрент скачан:15 раз
Скачать  

18-10-2020 18:52 У дьявола есть имя Скачать торрент  

У дьявола есть имя | The Devil Has a Name
Год выпуска: 2019
Страна: США
Студия: StoryBoard Media, True Navigator Media
Жанр: Триллер, драма
Продолжительность: 01:37:18
Перевод: Любительский (многоголосый) | @MUZOBOZ@
Субтитры: Английские

Режиссер: Эдвард Джеймс Олмос

rating

В ролях: Хейли Джоэл Осмент, Пабло Шрайбер, Кейт Босворт, Мартин Шин, Дэвид Стрэтэйрн, Альфред Молина, Эдвард Джеймс Олмос, Кэтрин Аселтон, Тамо Пеникетт, Майкл Хоган

Описание: Пожилой американский фермер Фред Стерн объявляет войну нефтяной империи, отравивший воду на его участке. Упрямому Стерну противостоит властная и высокомерная бизнес-леди Гиги Катлер, которая является региональным директором, но метит на место главы корпорации. Тем временем действующий «Большой Босс» тоже пытается низвергнуть опасную соперницу.

Качество: WEB-DL 1080p
Формат: MKV

Видео: MPEG-4 AVC, ~ 6001 Кбит/с, 1920x1080, 23.976 кадр/с
Аудио#1: AC3, 48 Гц, 192 Кбит/сек, 2 ch (L + R) | MVO | @MUZOBOZ@
Аудио#2: AC3, 48 Гц, 384 Кбит/сек, 6 ch (L C R, + L R, LFE) | Английский
скриншот  скриншот  скриншот  скриншот  скриншот  

Общее
Уникальный идентификатор : 47997255026530524076327865215689259181 (0x241BEF60C60D67CE2BC6C665368D78AD)
Полное имя : D:ТоррентыThe.Devil.Has.a.Name.2020.RU.ENG.x264.WEB-DL-1080p-MediaBit.mkv
Формат : Matroska
Версия формата : Version 4
Размер файла : 4,47 Гбайт
Продолжительность : 1 ч. 37 м.
Общий поток : 6 579 Кбит/сек
Название фильма : У дьявола есть имя / The Devil Has a Name (2019)
Дата кодирования : UTC 2020-10-18 13:15:25
Программа кодирования : mkvmerge v25.0.0 ('Prog Noir') 64-bit
Библиотека кодирования : libebml v1.3.6 + libmatroska v1.4.9

Видео
Идентификатор : 1
Формат : AVC
Формат/Информация : Advanced Video Codec
Профиль формата : High@L4
Настройки формата : CABAC / 2 Ref Frames
Параметр CABAC формата : Да
Параметр RefFrames формата : 2 кадра
Идентификатор кодека : V_MPEG4/ISO/AVC
Продолжительность : 1 ч. 37 м.
Битрейт : 6 001 Кбит/сек
Ширина : 1 920 пикселей
Высота : 1 080 пикселей
Соотношение сторон : 16:9
Режим частоты кадров : Постоянный
Частота кадров : 23,976 (24000/1001) кадра/сек
Цветовое пространство : YUV
Субдискретизация насыщенности : 4:2:0
Битовая глубина : 8 бит
Тип развёртки : Прогрессивная
Бит/(Пиксели*Кадры) : 0.121
Размер потока : 4,08 Гбайт (91%)
Библиотека кодирования : x264 core 155 r2901 7d0ff22
Язык : English
Default : Да
Forced : Нет
Цветовой диапазон : Limited
Основные цвета : BT.709
Характеристики трансфера : BT.709
Коэффициенты матрицы : BT.709

Аудио #1
Идентификатор : 2
Формат : AC-3
Формат/Информация : Audio Coding 3
Коммерческое название : Dolby Digital
Идентификатор кодека : A_AC3
Продолжительность : 1 ч. 37 м.
Вид битрейта : Постоянный
Битрейт : 192 Кбит/сек
Каналы : 2 канала
Channel layout : L R
Частота : 48,0 КГц
Частота кадров : 31,250 кадров/сек (1536 SPF)
Метод сжатия : С потерями
Размер потока : 134 Мбайт (3%)
Заголовок : MVO [@MUZOBOZ@] MediaBit
Язык : Russian
Service kind : Complete Main
Default : Да
Forced : Нет

Аудио #2
Идентификатор : 3
Формат : AC-3
Формат/Информация : Audio Coding 3
Коммерческое название : Dolby Digital
Идентификатор кодека : A_AC3
Продолжительность : 1 ч. 37 м.
Вид битрейта : Постоянный
Битрейт : 384 Кбит/сек
Каналы : 6 каналов
Channel layout : L R C LFE Ls Rs
Частота : 48,0 КГц
Частота кадров : 31,250 кадров/сек (1536 SPF)
Метод сжатия : С потерями
Размер потока : 267 Мбайт (6%)
Язык : English
Service kind : Complete Main
Default : Нет
Forced : Нет

Текст
Идентификатор : 4
Формат : UTF-8
Идентификатор кодека : S_TEXT/UTF8
Идентификатор кодека/Информация : UTF-8 Plain Text
Продолжительность : 1 ч. 36 м.
Битрейт : 59 бит/сек
Count of elements : 1590
Размер потока : 42,4 Кбайт (0%)
Язык : English
Default : Нет
Forced : Нет

pb.wtf



Скачать У дьявола есть имя через торрент https://d.radikal.ru/d24/2010/71/df5d55a16420.jpg Скачать фильм У дьявола есть имя через торрент бесплантно в хорошем качестве Описание: Пожилой американский фермер Фред Стерн объявляет войну нефтяной империи, отравивший воду на его участке. Упрямому Стерну ... 10 10 3
Торрент: Зарегистрирован [2020-10-18 18:52] · скачан: 15 раз
Статус: T временная
Размер: 4.47 GB
Как cкачать? Как скачать У дьявола есть имя через торрент | qTorrent

% Раздел Тема Автор DL S | L
T Фильмы 2019-2020 [DVDrip, WEB-DLRip, HDrip] (DUB, MVO) [ 1.46 GB ] У дьявола есть имя / The Devil Has a Name [2019 WEB-DLRip-AVC] [MVO] [@MUZOBOZ@] от MediaBit Lithuania Скачать
1 | 0
T Фильмы 2019-2020 [DVDrip, WEB-DLRip, HDrip] (DUB, MVO) [ 1.45 GB ] У дьявола есть имя / The Devil Has a Name [2019 WEB-DLRip] MVO [@MUZOBOZ@] bober100 Скачать
2 | 0

28-11-2019 20:33  

Отключить всю рекламу на сайте

    Дорогой пользователь! Огромная просьба, поблагодарите релизера, оцените раздачу и оставьте свои комментарий, если Вы скачали У дьявола есть имя через торрент бесплатно! Внесите свою лепту в развитие PiratBit!
    Комментировать посты могут только пользователи прошедшие не сложную регистрацию
    Показать сообщения:    

    У дьявола есть имя через торрент
    Скачать бесплатно У дьявола есть имя
    У дьявола есть имя скачать торрент
    У дьявола есть имя смотреть онлайн
    Cкачать фильм У дьявола есть имя бесплатно
    У дьявола есть имя скачать торрент в хорошем качестве
    У дьявола есть имя смотреть онлайн бесплатно в хорошем качестве


    Вы не можете начинать темы
    Вы не можете отвечать на сообщения
    Вы не можете редактировать свои сообщения
    Вы не можете удалять свои сообщения
    Вы не можете голосовать в опросах
    Вы не можете прикреплять файлы к сообщениям
    Вы можете скачивать файлы