Достать ножи: Стеклянная луковица

MVO

Добыча

Дубляж

Уэнсдэй

1 сезон

Тор

Дубляж

13 клиническая

1 сезон

Жестокая ночь

MVO

Одни из нас

1 сезон

Deluxe

pack

Рекомендуем

30

Пиратка

ВАЖНО

ВАЖНО

Ghostwire

Пиратка

jed

RePack

nioh2

RePack

RDR2

RePack

NEED FOR SPEED™ PAYBACK

RePack

скачать торрент

Кинопоиск HD

Острые козырьки 6 сезон

6 сезон

FAR CRY 6

RePack

скачать торрент

Лицензия

скачать торрент

MVO

1

1 сезон

скачать торрент

1 сезон

скачать торрент

Лицензия

  

2067: Петля времени / 2067 (Сет Ларни) [2020, Фантастика, драма, WEB-DL 1080p] Дубляж [iTunes]

2067: Петля времени через торрент pb.wtf

Размер: 7.28 GB | Добавлен: 2 года 3 мес. назад | Торрент скачан:556 раз
Смотреть онлайн | Скачать | Поддержите нас   

18-10-2020 20:07 2067: Петля времени Скачать торрент  

2067: Петля времени | 2067
Год выпуска: 2020
Страна: Австралия
Студия: Arcadia, Elevate Production Finance, Futurism Studios
Жанр: Фантастика, драма
Продолжительность: 01:54:27
Перевод: Дублированный | iTunes
Субтитры: Английские

Режиссер: Сет Ларни

rating

В ролях: Коди Смит-МакФи, Райан Квантен, Лианна Уолсмен, Дебора Мэйлман, Сана а Шейк, Финн Литтл, Дэмиэн Уолш-Хоулинг, Энди МакФи, Аарон Гленнэйн, Мэтт Тестро

Описание: 2067 год. Добро пожаловать в мир, где царит хаос: исчезли леса и растения, вымерли дикие животные, а люди оказались на грани вымирания из-за отсутствия кислорода. Неожиданное послание из будущего «Отправьте Итана Уайта» — последняя надежда человечества. Кто такой Итан Уайт? Сможет ли он спасти мир?

Качество: WEB-DL 1080p
Формат: MKV

Видео: MPEG-4 AVC, 1920x816, 8083 Кbit/s, 23.976 fps
Аудио#1: 48 kHz, AC3, 5.1, 384 Kbps | iTunes | RUS |
Аудио#2: 48 kHz, E-AC3, 5.1, 640 Kbps | Оригинал | ENG |
скриншот  скриншот  скриншот  скриншот  скриншот  

General
Unique ID : 21858775186475020912496780409072966112 (0x1071D8D2E3D7545C9AA033C629EAD9E0)
Complete name : D:Video1112067.2020.AMZN.WEB-DL.1080p.seleZen.mkv
Format : Matroska
Format version : Version 4
File size : 7.28 GiB
Duration : 1 h 54 min
Overall bit rate : 9 109 kb/s
Movie name : 2067 2020 from селезень
Encoded date : UTC 2020-10-18 19:53:01
Writing application : mkvmerge v40.0.0 ('Old Town Road + Pony') 64-bit
Writing library : libebml v1.3.9 + libmatroska v1.5.2

Video
ID : 1
Format : AVC
Format/Info : Advanced Video Codec
Format profile : [email protected]
Format settings : CABAC / 4 Ref Frames
Format settings, CABAC : Yes
Format settings, Reference : 4 frames
Codec ID : V_MPEG4/ISO/AVC
Duration : 1 h 54 min
Bit rate mode : Constant
Bit rate : 8 083 kb/s
Nominal bit rate : 10 000 kb/s
Width : 1 920 pixels
Height : 816 pixels
Display aspect ratio : 2.35:1
Frame rate mode : Constant
Frame rate : 23.976 (24000/1001) FPS
Color space : YUV
Chroma subsampling : 4:2:0
Bit depth : 8 bits
Scan type : Progressive
Bits/(Pixel*Frame) : 0.215
Stream size : 6.46 GiB (89%)
Language : English
Default : Yes
Forced : No
Color range : Limited
Color primaries : BT.709
Transfer characteristics : BT.709
Matrix coefficients : BT.709

Audio #1
ID : 2
Format : AC-3
Format/Info : Audio Coding 3
Commercial name : Dolby Digital
Codec ID : A_AC3
Duration : 1 h 54 min
Bit rate mode : Constant
Bit rate : 384 kb/s
Channel(s) : 6 channels
Channel layout : L R C LFE Ls Rs
Sampling rate : 48.0 kHz
Frame rate : 31.250 FPS (1536 SPF)
Compression mode : Lossy
Stream size : 314 MiB (4%)
Language : Russian
Service kind : Complete Main
Default : Yes
Forced : Yes

Audio #2
ID : 3
Format : E-AC-3
Format/Info : Enhanced AC-3
Commercial name : Dolby Digital Plus
Codec ID : A_EAC3
Duration : 1 h 54 min
Bit rate mode : Constant
Bit rate : 640 kb/s
Channel(s) : 6 channels
Channel layout : L R C LFE Ls Rs
Sampling rate : 48.0 kHz
Frame rate : 31.250 FPS (1536 SPF)
Compression mode : Lossy
Stream size : 524 MiB (7%)
Title : Original
Language : English
Service kind : Complete Main
Default : No
Forced : No

Text
ID : 4
Format : UTF-8
Codec ID : S_TEXT/UTF8
Codec ID/Info : UTF-8 Plain Text
Duration : 1 h 50 min
Bit rate : 45 b/s
Count of elements : 1352
Stream size : 36.8 KiB (0%)
Title : SDH
Language : English
Default : No
Forced : No




Скачать 2067: Петля времени через торрент https://i114.fastpic.ru/big/2020/1018/b1/3d6c33fc081f58947df513126b5cc0b1.jpg Скачать, смотреть онлайн 2067: Петля времени бесплантно в хорошем качестве Описание: 2067 год. Добро пожаловать в мир, где царит хаос: исчезли леса и растения, вымерли дикие животные, а люди оказались на грани ... 8.5 10 21
Торрент: Зарегистрирован [2020-10-18 20:07] · скачан: 556 раз
Статус: √ проверено
Размер: 7.28 GB
Как cкачать? Как скачать 2067: Петля времени через торрент | UTorrent

% Раздел Тема Автор DL S | L
Фильмы (WEB-DL 720p, 1080p) [ 3.52 GB ] 2067: Петля времени / 2067 | iTunes | 720p bober100 Скачать
1 | 0
Фильмы [HD 720p, 1080p] (Хороший звук DUB, MVO) [ 4.3 GB ] 2067: Петля времени / 2067 | iTunes | 720p bober100 Скачать
1 | 0
Фильмы (Blu-ray, BD-Remux, HDDVD) [ 25.16 GB ] 2067: Петля времени / 2067 | iTunes | BD Remux 1080p bober100 Скачать
1 | 0
Фильмы 2019-2020 [DVDrip, WEB-DLRip, HDrip] (DUB, MVO) [ 1.46 GB ] 2067: Петля времени / 2067 | Лицензия | HDRip Twi7ter Скачать
2 | 0
Фильмы 2019-2020 [DVDrip, WEB-DLRip, HDrip] (DUB, MVO) [ 2.13 GB ] 2067: Петля времени / 2067 | Лицензия | HDRip Twi7ter Скачать
5 | 0
Фильмы [HD 720p, 1080p] (Хороший звук DUB, MVO) [ 11.17 GB ] 2067: Петля времени / 2067 | iTunes | 1080p bober100 Скачать
1 | 0
Фильмы 2019-2020 [DVDrip, WEB-DLRip, HDrip] (DUB, MVO) [ 1.46 GB ] 2067: Петля времени / 2067 | iTunes | HDRip bober100 Скачать
1 | 0

28-11-2019 20:33  


Отключить вcю реклaмy на сайте, в т.ч. и в плеере онлайн просмотра!

19-10-2020 16:15 2067: Петля времени Скачать торрент  

последние несколько лет австралийцы реально радуют. Не то что бы супер хорошими фантастическими лентами, но как минимум- вполне смотрибельными. Надеюсь, этот фильм не исключение и это - тенденция %)



20-10-2020 13:57 2067: Петля времени Скачать торрент  

Koshmarwin писал(а):

последние несколько лет австралийцы реально радуют.

Заинтриговал, посмотрю!



20-10-2020 19:04 2067: Петля времени Скачать торрент  

Классный фильм, мне понравился. Однозначно советую к просмотру.



14-11-2020 19:40 2067: Петля времени Скачать торрент  

не тратьте время



15-11-2020 06:10 2067: Петля времени Скачать торрент  

where Sample?



    Дорогой пользователь! Огромная просьба, поблагодарите релизера, оцените раздачу и оставьте свои комментарий, если Вы скачали 2067: Петля времени через торрент бесплатно!!
    Комментировать посты могут только пользователи прошедшие не сложную регистрацию
    Показать сообщения:    


    2067: Петля времени через торрент
    Скачать бесплатно 2067: Петля времени
    2067: Петля времени скачать торрент
    2067: Петля времени смотреть онлайн
    Cкачать фильм 2067: Петля времени бесплатно
    2067: Петля времени скачать торрент в хорошем качестве
    2067: Петля времени смотреть онлайн бесплатно в хорошем качестве
    Вы не можете начинать темы
    Вы не можете отвечать на сообщения
    Вы не можете редактировать свои сообщения
    Вы не можете удалять свои сообщения
    Вы не можете голосовать в опросах
    Вы не можете прикреплять файлы к сообщениям
    Вы можете скачивать файлы
    2067: Петля времени / 2067 [2020, Фантастика, драма, WEB-DL 1080p] Дубляж [iTunes] смотреть онлайн, скачать торрент picoco.icu