2 сезон

iTunes

MVO

1

2 сезон

iTunes

iTunes

1 сезон

RePack

30

Новинка

ВАЖНО

ИГРА 18+

pack

RePack

MK11
pack

Легкие деньги

RePack

jed

RePack

fifa19

RePack

RDR2

RePack

NEED FOR SPEED™ PAYBACK

4 сезон

9 сезон

Бесстыжие 9 сезон

Все сериалы

все сериалы на PB.wtf

RePack

FAR CRY 5

Anonymous, доброе утро, мы не успеваем собрать деньги на оплату серверов за декабрь и январь, помогите нам пожалуйста в это трудное время. В качестве благодарности мы отключим Вам всю рекламу на сайте (укажите свой ник в строку Ваше имя)!

×
  
Magnet ссылка

Девушка-невидимка / Возвышаясь над тенью / Above the Shadows (Клаудия Майерс) [2019, Фэнтези, BDRip 720p] DUB [iTunes] pb.wtf

Девушка-невидимка через торрент pb.wtf

Раздают: 4 [ 0 KB/s ]
Размер: 5.44 GB | Добавлен: 3 мес. 5 д. назад | Торрент скачан:215 раз
Скачать  

18-10-2020 20:30 Девушка-невидимка Скачать торрент  

Девушка-невидимка | Возвышаясь над тенью | Above the Shadows
Год выпуска: 2019
Страна: США
Студия: HIPZEE, BondIt Media Capital, Boundary Stone Films
Жанр: Фэнтези
Продолжительность: 01:50:57
Перевод: Дублированный | iTunes
Субтитры: отсутствуют

Режиссер: Клаудия Майерс

rating

В ролях: Меган Фокс, Оливия Тирлби, Алан Ричсон, Джастин Котсонас, Джим Гэффиган, Мария Диззия, Дэвид Джохансен, Павел Жайда, Оуэн Кэмпбелл, Тито Ортис

Описание: В юности Холли обнаружила, что стала невидимой для окружающих. Поначалу она не понимала, почему её никто не замечает, полагая, что все вокруг просто притворяются, но в конце концов девушка смирилась со своей вынужденной ролью невидимки и стала жить по новым правилам. Несколько лет Холли подглядывала за чужими жизнями, зарабатывая на этом неплохие деньги. Ей открылись многие тайны, которые ранее тщательно скрывались. Но однажды Холли выпадает шанс поставить всё на прежние места и вернуться в мир людей при помощи единственного мужчины, который может её видеть.

Качество: BDRip 720p
Формат: MKV

Видео: MPEG-4 AVC, 1280x536, 6000 Kbit/s, 23.976 fps
Аудио#1: 48 kHz, AC3, 5.1, 384 Kbps | iTunes | RUS |
Аудио#2: 48 kHz, AC3, 5.1, 640 Kbps | Оригинал | ENG |
скриншот  скриншот  скриншот  скриншот  скриншот  

General
Unique ID : 33801174132672374583371271525261128058 (0x196DDE8D2E6B7D1E301E177164E4317A)
Complete name : D:Video111Above.the.Shadows.2019.BDRip.720p.seleZen.mkv
Format : Matroska
Format version : Version 4
File size : 5.44 GiB
Duration : 1 h 50 min
Overall bit rate : 7 022 kb/s
Movie name : Above the Shadows (2019) from селезень
Encoded date : UTC 2020-10-18 19:31:41
Writing application : mkvmerge v40.0.0 ('Old Town Road + Pony') 64-bit
Writing library : libebml v1.3.9 + libmatroska v1.5.2

Video
ID : 1
Format : AVC
Format/Info : Advanced Video Codec
Format profile : High@L4.1
Format settings : CABAC / 12 Ref Frames
Format settings, CABAC : Yes
Format settings, Reference : 12 frames
Codec ID : V_MPEG4/ISO/AVC
Duration : 1 h 50 min
Bit rate : 6 000 kb/s
Width : 1 280 pixels
Height : 536 pixels
Display aspect ratio : 2.40:1
Frame rate mode : Constant
Frame rate : 23.976 (24000/1001) FPS
Color space : YUV
Chroma subsampling : 4:2:0
Bit depth : 8 bits
Scan type : Progressive
Bits/(Pixel*Frame) : 0.365
Stream size : 4.65 GiB (85%)
Title : LoRD
Writing library : x264 core 159 r2991+50 ~ LoRD
Encoding settings : cabac=1 / ref=12 / deblock=1:-3:-3 / analyse=0x3:0x133 / me=umh / subme=10 / psy=1 / fade_compensate=0.00 / psy_rd=1.00:0.00 / mixed_ref=1 / me_range=32 / chroma_me=1 / trellis=2 / 8x8dct=1 / cqm=0 / deadzone=21,11 / fast_pskip=0 / chroma_qp_offset=-2 / threads=12 / lookahead_threads=2 / sliced_threads=0 / nr=0 / decimate=0 / interlaced=0 / bluray_compat=0 / constrained_intra=0 / fgo=0 / bframes=8 / b_pyramid=2 / b_adapt=2 / b_bias=0 / direct=3 / weightb=1 / open_gop=0 / weightp=2 / keyint=250 / keyint_min=23 / scenecut=40 / intra_refresh=0 / rc_lookahead=60 / rc=2pass / mbtree=0 / bitrate=6000 / ratetol=1.0 / qcomp=0.60 / qpmin=0:0:0 / qpmax=69:69:69 / qpstep=4 / cplxblur=20.0 / qblur=0.5 / vbv_maxrate=50000 / vbv_bufsize=62500 / nal_hrd=none / filler=0 / ip_ratio=1.25 / pb_ratio=1.25 / aq=3:0.80 / aq-sensitivity=10.00 / aq-factor=1.00:1.00:1.00 / aq2=0 / aq3=0
Language : English
Default : Yes
Forced : No

Audio #1
ID : 2
Format : AC-3
Format/Info : Audio Coding 3
Commercial name : Dolby Digital
Codec ID : A_AC3
Duration : 1 h 50 min
Bit rate mode : Constant
Bit rate : 384 kb/s
Channel(s) : 6 channels
Channel layout : L R C LFE Ls Rs
Sampling rate : 48.0 kHz
Frame rate : 31.250 FPS (1536 SPF)
Compression mode : Lossy
Stream size : 305 MiB (5%)
Title : iTunes
Language : Russian
Service kind : Complete Main
Default : Yes
Forced : Yes

Audio #2
ID : 3
Format : AC-3
Format/Info : Audio Coding 3
Commercial name : Dolby Digital
Codec ID : A_AC3
Duration : 1 h 50 min
Bit rate mode : Constant
Bit rate : 640 kb/s
Channel(s) : 6 channels
Channel layout : L R C LFE Ls Rs
Sampling rate : 48.0 kHz
Frame rate : 31.250 FPS (1536 SPF)
Compression mode : Lossy
Stream size : 508 MiB (9%)
Title : Original
Language : English
Service kind : Complete Main
Default : No
Forced : No

Text #1
ID : 4
Format : UTF-8
Codec ID : S_TEXT/UTF8
Codec ID/Info : UTF-8 Plain Text
Duration : 1 h 44 min
Bit rate : 46 b/s
Count of elements : 1059
Stream size : 35.7 KiB (0%)
Title : Full
Language : English
Default : No
Forced : No

Text #2
ID : 5
Format : UTF-8
Codec ID : S_TEXT/UTF8
Codec ID/Info : UTF-8 Plain Text
Duration : 1 h 50 min
Bit rate : 47 b/s
Count of elements : 1156
Stream size : 38.6 KiB (0%)
Title : SDH
Language : English
Default : No
Forced : No

Menu
00:00:00.000 : en:Chapter 01
00:01:12.238 : en:Chapter 02
00:14:48.554 : en:Chapter 03
00:29:59.380 : en:Chapter 04
00:44:19.281 : en:Chapter 05
00:59:12.090 : en:Chapter 06
01:16:38.802 : en:Chapter 07
01:29:46.005 : en:Chapter 08
01:44:56.290 : en:Chapter 09

pb.wtf



Скачать Девушка-невидимка через торрент https://i114.fastpic.ru/big/2020/1018/3e/f1eb523741450c03a004d97f18e8253e.jpg Скачать фильм Девушка-невидимка через торрент бесплантно в хорошем качестве Описание: В юности Холли обнаружила, что стала невидимой для окружающих. Поначалу она не понимала, почему её никто не замечает, полагая, ... 10 10 4
Торрент: Зарегистрирован [2020-10-18 20:30] · скачан: 215 раз
Статус: √ проверено
Размер: 5.44 GB
Как cкачать? Как скачать Девушка-невидимка через торрент | UTorrent

% Раздел Тема Автор DL S | L
Фильмы 2019-2020 [DVDrip, WEB-DLRip, HDrip] (DUB, MVO) [ 1.41 GB ] Девушка-невидимка / Возвышаясь над тенью / Above the Shadows [2019 BDRip] - Twi7ter Скачать
25 | 1
Фильмы 2019-2020 [DVDrip, WEB-DLRip, HDrip] (DUB, MVO) [ 2.13 GB ] Девушка-невидимка / Возвышаясь над тенью / Above the Shadows [2019 BDRip-AVC] bober100 Скачать
3 | 0
Фильмы 2019-2020 [DVDrip, WEB-DLRip, HDrip] (DUB, MVO) [ 1.41 GB ] Девушка-невидимка / Возвышаясь над тенью / Above the Shadows [2019 BDRip-AVC] bober100 Скачать
3 | 0
Фильмы (Blu-ray, BD-Remux, HDDVD) [ 18.62 GB ] Девушка-невидимка / Возвышаясь над тенью / Above the Shadows [2019 BD Remux 1080p] bober100 Скачать
1 | 0
Фильмы 2019-2020 [DVDrip, WEB-DLRip, HDrip] (DUB, MVO) [ 1.46 GB ] Девушка-невидимка / Возвышаясь над тенью / Above the Shadows [2019 BDRip] bober100 Скачать
4 | 0
Фильмы [HD 720p, 1080p] (Хороший звук DUB, MVO) [ 12.96 GB ] Девушка-невидимка / Возвышаясь над тенью / Above the Shadows [2019 BDRip 1080p] bober100 Скачать
2 | 0

28-11-2019 20:33  

Отключить всю рекламу на сайте

19-10-2020 16:17 Девушка-невидимка Скачать торрент  

нафиг ей деньги, если ее никто не видит? это какая то фобия чтоль?Может -мания? Болезнь?pb.wtf



    Дорогой пользователь! Огромная просьба, поблагодарите релизера, оцените раздачу и оставьте свои комментарий, если Вы скачали Девушка-невидимка через торрент бесплатно! Внесите свою лепту в развитие PiratBit!
    Комментировать посты могут только пользователи прошедшие не сложную регистрацию
    Показать сообщения:    

    Девушка-невидимка через торрент
    Скачать бесплатно Девушка-невидимка
    Девушка-невидимка скачать торрент
    Девушка-невидимка смотреть онлайн
    Cкачать фильм Девушка-невидимка бесплатно
    Девушка-невидимка скачать торрент в хорошем качестве
    Девушка-невидимка смотреть онлайн бесплатно в хорошем качестве


    Вы не можете начинать темы
    Вы не можете отвечать на сообщения
    Вы не можете редактировать свои сообщения
    Вы не можете удалять свои сообщения
    Вы не можете голосовать в опросах
    Вы не можете прикреплять файлы к сообщениям
    Вы можете скачивать файлы