Достать ножи: Стеклянная луковица

MVO

Добыча

Дубляж

Уэнсдэй

1 сезон

Тор

Дубляж

13 клиническая

1 сезон

Жестокая ночь

MVO

Одни из нас

1 сезон

Deluxe

pack

Рекомендуем

30

Пиратка

ВАЖНО

ВАЖНО

Ghostwire

Пиратка

jed

RePack

nioh2

RePack

RDR2

RePack

NEED FOR SPEED™ PAYBACK

RePack

скачать торрент

Кинопоиск HD

Острые козырьки 6 сезон

6 сезон

FAR CRY 6

RePack

скачать торрент

Лицензия

скачать торрент

MVO

1

1 сезон

скачать торрент

1 сезон

скачать торрент

Лицензия

  

2067: Петля времени / 2067 (Сет Ларни) [2020, Фантастика, драма, WEB-DL 720p] Дубляж [iTunes]

2067: Петля времени через торрент pb.wtf

Размер: 3.52 GB | Добавлен: 2 года 3 мес. назад | Торрент скачан:294 раза
Смотреть онлайн | Скачать | Поддержите нас   

19-10-2020 04:22 2067: Петля времени Скачать торрент  

2067: Петля времени | 2067
Год выпуска: 2020
Страна: Австралия
Студия: Arcadia, Elevate Production Finance, Futurism Studios
Жанр: Фантастика, драма
Продолжительность: 01:54:27
Перевод: Дублированный | iTunes
Субтитры: Английские, испанские

Режиссер: Сет Ларни

rating

В ролях: Коди Смит-МакФи, Райан Квантен, Лианна Уолсмен, Дебора Мэйлман, Сана а Шейк, Финн Литтл, Дэмиэн Уолш-Хоулинг, Энди МакФи, Аарон Гленнэйн, Мэтт Тестро

Описание: 2067 год. Добро пожаловать в мир, где царит хаос: исчезли леса и растения, вымерли дикие животные, а люди оказались на грани вымирания из-за отсутствия кислорода. Неожиданное послание из будущего «Отправьте Итана Уайта» — последняя надежда человечества. Кто такой Итан Уайт? Сможет ли он спасти мир?

Качество: WEB-DL 720p
Формат: MKV

Видео: MPEG-4 AVC, 1280x544, 3373 Кbit/s, 23.976 fps
Аудио#1: 48 kHz, AC3, 5.1, 384 Kbps | iTunes | RUS |
Аудио#2: 48 kHz, E-AC3, 5.1, 640 Kbps | Оригинал | ENG |
скриншот  скриншот  скриншот  скриншот  скриншот  

Источник: 2067.2020.720p.AMZN.WEB-DL.DDP5.1.x264-NTG
General
Unique ID : 218374408004630962250448745533977542480 (0xA4496192CF676DE684F5A3FF662E3F50)
Complete name : 2067.2020.AMZN.WEB-DL.720p.mkv
Format : Matroska
Format version : Version 4
File size : 3.52 GiB
Duration : 1 h 54 min
Overall bit rate : 4 399 kb/s
Encoded date : UTC 2020-10-18 22:07:16
Writing application : mkvmerge v7.1.0 ('Good Love') 64bit built on Jul 27 2014 13:06:55
Writing library : libebml v1.3.0 + libmatroska v1.4.1

Video
ID : 1
Format : AVC
Format/Info : Advanced Video Codec
Format profile : [email protected]
Format settings : CABAC / 4 Ref Frames
Format settings, CABAC : Yes
Format settings, Reference fra : 4 frames
Codec ID : V_MPEG4/ISO/AVC
Duration : 1 h 54 min
Bit rate mode : Constant
Bit rate : 3 373 kb/s
Nominal bit rate : 6 000 kb/s
Width : 1 280 pixels
Height : 544 pixels
Display aspect ratio : 2.35:1
Original display aspect ratio : 2.35:1
Frame rate mode : Constant
Frame rate : 23.976 (24000/1001) FPS
Color space : YUV
Chroma subsampling : 4:2:0
Bit depth : 8 bits
Scan type : Progressive
Bits/(Pixel*Frame) : 0.202
Stream size : 2.70 GiB (77%)
Language : English
Default : Yes
Forced : No
Color range : Limited
Color primaries : BT.709
Transfer characteristics : BT.709
Matrix coefficients : BT.709

Audio #1
ID : 2
Format : AC-3
Format/Info : Audio Coding 3
Commercial name : Dolby Digital
Codec ID : A_AC3
Duration : 1 h 54 min
Bit rate mode : Constant
Bit rate : 384 kb/s
Channel(s) : 6 channels
Channel layout : L R C LFE Ls Rs
Sampling rate : 48.0 kHz
Frame rate : 31.250 FPS (1536 SPF)
Compression mode : Lossy
Stream size : 314 MiB (9%)
Title : Дубляж | iTunes
Language : Russian
Service kind : Complete Main
Default : Yes
Forced : No

Audio #2
ID : 3
Format : AC-3
Format/Info : Audio Coding 3
Commercial name : Dolby Digital
Codec ID : A_AC3
Duration : 1 h 54 min
Bit rate mode : Constant
Bit rate : 640 kb/s
Channel(s) : 6 channels
Channel layout : L R C LFE Ls Rs
Sampling rate : 48.0 kHz
Frame rate : 31.250 FPS (1536 SPF)
Compression mode : Lossy
Stream size : 524 MiB (15%)
Language : English
Service kind : Complete Main
Default : No
Forced : No

Text #1
ID : 4
Format : UTF-8
Codec ID : S_TEXT/UTF8
Codec ID/Info : UTF-8 Plain Text
Duration : 1 h 50 min
Bit rate : 45 b/s
Count of elements : 1352
Stream size : 36.8 KiB (0%)
Title : SDH
Language : English
Default : No
Forced : No

Text #2
ID : 5
Format : UTF-8
Codec ID : S_TEXT/UTF8
Codec ID/Info : UTF-8 Plain Text
Duration : 1 h 44 min
Bit rate : 49 b/s
Count of elements : 1301
Stream size : 37.8 KiB (0%)
Language : Spanish
Default : No
Forced : No




Скачать 2067: Петля времени через торрент https://i114.fastpic.ru/big/2020/1018/b1/3d6c33fc081f58947df513126b5cc0b1.jpg Скачать, смотреть онлайн 2067: Петля времени бесплантно в хорошем качестве Описание: 2067 год. Добро пожаловать в мир, где царит хаос: исчезли леса и растения, вымерли дикие животные, а люди оказались на грани ... 8.7 10 7
Торрент: Зарегистрирован [2020-10-19 04:22] · скачан: 294 раз
Статус: √ проверено
Размер: 3.52 GB
Как cкачать? Как скачать 2067: Петля времени через торрент | UTorrent

% Раздел Тема Автор DL S | L
Фильмы [HD 720p, 1080p] (Хороший звук DUB, MVO) [ 4.3 GB ] 2067: Петля времени / 2067 | iTunes | 720p bober100 Скачать
1 | 0
Фильмы (WEB-DL 720p, 1080p) [ 7.28 GB ] 2067: Петля времени / 2067 | iTunes | 1080p bober100 Скачать
3 | 0
Фильмы (Blu-ray, BD-Remux, HDDVD) [ 25.16 GB ] 2067: Петля времени / 2067 | iTunes | BD Remux 1080p bober100 Скачать
1 | 0
Фильмы 2019-2020 [DVDrip, WEB-DLRip, HDrip] (DUB, MVO) [ 1.46 GB ] 2067: Петля времени / 2067 | Лицензия | HDRip Twi7ter Скачать
3 | 0
Фильмы 2019-2020 [DVDrip, WEB-DLRip, HDrip] (DUB, MVO) [ 2.13 GB ] 2067: Петля времени / 2067 | Лицензия | HDRip Twi7ter Скачать
3 | 0
Фильмы [HD 720p, 1080p] (Хороший звук DUB, MVO) [ 11.17 GB ] 2067: Петля времени / 2067 | iTunes | 1080p bober100 Скачать
1 | 0
Фильмы 2019-2020 [DVDrip, WEB-DLRip, HDrip] (DUB, MVO) [ 1.46 GB ] 2067: Петля времени / 2067 | iTunes | HDRip bober100 Скачать
1 | 0

28-11-2019 20:33  


Отключить вcю реклaмy на сайте, в т.ч. и в плеере онлайн просмотра!

08-12-2020 21:01 2067: Петля времени Скачать торрент  

Дешёвая сопливая нудятина



    Дорогой пользователь! Огромная просьба, поблагодарите релизера, оцените раздачу и оставьте свои комментарий, если Вы скачали 2067: Петля времени через торрент бесплатно!!
    Комментировать посты могут только пользователи прошедшие не сложную регистрацию
    Показать сообщения:    


    2067: Петля времени через торрент
    Скачать бесплатно 2067: Петля времени
    2067: Петля времени скачать торрент
    2067: Петля времени смотреть онлайн
    Cкачать фильм 2067: Петля времени бесплатно
    2067: Петля времени скачать торрент в хорошем качестве
    2067: Петля времени смотреть онлайн бесплатно в хорошем качестве
    Вы не можете начинать темы
    Вы не можете отвечать на сообщения
    Вы не можете редактировать свои сообщения
    Вы не можете удалять свои сообщения
    Вы не можете голосовать в опросах
    Вы не можете прикреплять файлы к сообщениям
    Вы можете скачивать файлы
    2067: Петля времени / 2067 [2020, Фантастика, драма, WEB-DL 720p] Дубляж [iTunes] смотреть онлайн, скачать торрент picoco.icu