Ссылка на приватное зеркало нашего сайта всего за 1$. Внимание количество ограничено!!!

2 сезон

iTunes

1 сезон

1

2 сезон

2 сезон

iTunes

1 сезон

RePack

30

Новинка

ВАЖНО

ИГРА 18+

pack

RePack

MK11
pack

Забери бонус

RePack

jed

!!Акция!!

Alien_Rage

RePack

fifa19

RePack

Assassins Creed: Odyssey

RePack

NEED FOR SPEED™ PAYBACK

4 сезон

9 сезон

Бесстыжие 9 сезон

Все сериалы

все сериалы на PB.wtf

RePack

FAR CRY 5
  

Дом большой мамочки: Трилогия / Big Momma's House: Тrilogy [2000-2011, США, боевик, комедия, криминал, BDRip 720, 60 fps, DUB] от R.G. HD-Films pb.wtf

Дом большой мамочки: Трилогия через торрент pb.wtf

Размер: 11.73 GB | Добавлен: 1 мес. 11 д. назад | Торрент скачан:12 раз
Скачать  

19-10-2020 13:15 Дом большой мамочки: Трилогия Скачать торрент  

Дом большой мамочки: Трилогия / Big Momma's House: Тrilogy
Дом большой мамочки / Big Momma's House
Год выпуска: 2000
Страна: США
Жанр: боевик, комедия, криминал
Продолжительность: 01:38:58
Перевод: Дубляж
Субтитры: Russian, English

Режиссер: Раджа Госнелл

Бюджет: $30 000 000
Премьера в мире: 31 мая 2000



В ролях: Мартин Лоуренс, Ниа Лонг, Пол Джаматти, Яша Вашингтон, Терренс Ховард, Энтони Андерсон, Элла Митчел, Карл Райт, Филлис Эпплгейт, Старлетта Дюпуа

Описание: Агент ФБР Малькольм Тернер, мастер перевоплощений. Он умен, обаятелен и не существует такого задания, с которым он бы не справился. Остановить череду жестоких преступлений? Нет проблем.

Малкольм входит в роль пожилого азиата для расследования преступлений. Последнее назначение Малькома приводит его в маленький южный городок, где он должен поймать матерого грабителя банков, недавно сбежавшего из тюрьмы.

Малькольм устанавливает слежку за домом южной, властной женщины, известной как «Большая мамочка». По оперативным данным ее должна навестить бывшая подружка преступника Шерри со своим сыном. Очень простой план, но есть одна Большая проблема: Большая мамочка неожиданно покидает город...


Качество: BDRip 720p / 60 FPS
Формат: MKV
Видео кодек: H.264
Аудио кодек: AC3
Видео: x264, 1280 x 688 ( 1,85:1 ), 5479 kbps, 60,000 fps, ( 0.104 bpp)
Аудио#1: Русский, AC-3, 48.0 KHz, 6 ch, 384 Kbps DUB
Релиз от: Автор рипа: slaventi-69
Общее
Уникальный идентификатор : 226035139310089580465849045122099571302 (0xAA0CC8C9BA04D82F9BF18FB65D29EA66)
Полное имя : F:\Big Momma's House\Big.Momma's.House.(2000).BDRip.720p.(60 Fps).mkv
Формат : Matroska
Версия формата : Version 4
Размер файла : 4,05 Гбайт
Продолжительность : 1 ч. 38 м.
Общий поток : 5867 Кбит/сек
Название фильма : Дом большой мамочки / Big Momma's House (2000) BDRip 720p (60 Fps)
Дата кодирования : UTC 2020-10-16 08:39:36
Программа кодирования : mkvmerge v9.1.0 ('Little Earthquakes') 64bit
Библиотека кодирования : libebml v1.3.3 + libmatroska v1.4.4

Видео
Идентификатор : 1
Формат : AVC
Формат/Информация : Advanced Video Codec
Профиль формата : High@L4.1
Настройки формата : CABAC / 9 Ref Frames
Параметр CABAC формата : Да
Параметр RefFrames формата : 9 кадров
Идентификатор кодека : V_MPEG4/ISO/AVC
Продолжительность : 1 ч. 38 м.
Битрейт : 5479 Кбит/сек
Ширина : 1280 пикселей
Высота : 688 пикселей
Соотношение сторон : 1,85:1
Режим частоты кадров : Постоянный
Частота кадров : 60,000 кадров/сек
Цветовое пространство : YUV
Субдискретизация насыщенности : 4:2:0
Битовая глубина : 8 бит
Тип развёртки : Прогрессивная
Бит/(Пиксели*Кадры) : 0.104
Размер потока : 3,78 Гбайт (93%)
Заголовок : slaventi-69 ( R.G. HD-Films | 60 fps )
Библиотека кодирования : x264 core 130 r2273 b3065e6
Настройки программы : cabac=1 / ref=9 / deblock=1:-1:-1 / analyse=0x3:0x113 / me=umh / subme=9 / psy=1 / psy_rd=1.00:0.00 / mixed_ref=1 / me_range=32 / chroma_me=1 / trellis=2 / 8x8dct=1 / cqm=0 / deadzone=21,11 / fast_pskip=1 / chroma_qp_offset=-2 / threads=10 / lookahead_threads=4 / sliced_threads=0 / nr=0 / decimate=1 / interlaced=0 / bluray_compat=0 / constrained_intra=0 / bframes=5 / b_pyramid=2 / b_adapt=2 / b_bias=0 / direct=1 / weightb=1 / open_gop=0 / weightp=2 / keyint=600 / keyint_min=60 / scenecut=40 / intra_refresh=0 / rc=crf / mbtree=0 / crf=18.5 / qcomp=0.60 / qpmin=0 / qpmax=69 / qpstep=4 / ip_ratio=1.40 / pb_ratio=1.30 / aq=1:1.00
Язык : English
Default : Да
Forced : Нет

Аудио
Идентификатор : 2
Формат : AC-3
Формат/Информация : Audio Coding 3
Коммерческое название : Dolby Digital
Идентификатор кодека : A_AC3
Продолжительность : 1 ч. 38 м.
Вид битрейта : Постоянный
Битрейт : 384 Кбит/сек
Каналы : 6 каналов
Channel layout : L R C LFE Ls Rs
Частота : 48,0 КГц
Частота кадров : 31,250 кадров/сек (1536 SPF)
Битовая глубина : 16 бит
Метод сжатия : С потерями
Размер потока : 272 Мбайт (7%)
Заголовок : Dub
Язык : Russian
ServiceKind/String : Complete Main
Default : Да
Forced : Нет

Текст #1
Идентификатор : 3
Формат : UTF-8
Идентификатор кодека : S_TEXT/UTF8
Идентификатор кодека/Информация : UTF-8 Plain Text
Продолжительность : 1 ч. 32 м.
Битрейт : 101 бит/сек
ElementCount : 1129
Размер потока : 68,9 Кбайт (0%)
Язык : Russian
Default : Нет
Forced : Нет

Текст #2
Идентификатор : 4
Формат : UTF-8
Идентификатор кодека : S_TEXT/UTF8
Идентификатор кодека/Информация : UTF-8 Plain Text
Продолжительность : 1 ч. 36 м.
Битрейт : 67 бит/сек
ElementCount : 1312
Размер потока : 47,6 Кбайт (0%)
Язык : English
Default : Нет
Forced : Нет

Просьба к переливающим на другие сайты, в оформлении указывайте пожалуйста авторство группы R.G. HD-Films
Дом большой мамочки 2 / Big Momma's House 2
Год выпуска: 2006
Страна: США
Жанр: боевик, комедия, криминал
Продолжительность: 01:38:52
Перевод: Дубляж
Субтитры: Russian, English

Режиссер: Джон Уайтселл

Бюджет: $40 000 000
Премьера в мире: 26 января 2006



В ролях: Мартин Лоуренс, Ниа Лонг, Эмили Проктер, Захари Левай, Марк Мозес, Кэт Деннингс, Хлоя Морец, Марисоль Николс, Джош Флиттер, Дэн Лория

Описание: Агент ФБР Малкольм Тёрнер решает отойти от дел, что бы больше времени проводить с беременной женой, но узнаёт, что его бывший напарник был убит, предположительно одним из людей бизнесмена Тома Фуллера, которого ФБР подозревает в изготовлении вируса для террористов. Малкольм решает закончить дело своего коллеги, для чего он вновь надевает «костюм» Большой Мамочки и устраивается в дом Фуллера работать няней...


Качество: BDRip 720p / 60 FPS
Формат: MKV
Видео кодек: H.264
Аудио кодек: AC3
Видео: x264, 1280 x 696 ( 1,85:1 ), 5780 kbps, 60,000 fps, ( 0.108 bpp)
Аудио#1: Русский, AC-3, 48.0 KHz, 6 ch, 384 Kbps DUB
Релиз от: Автор рипа: slaventi-69
Общее
Уникальный идентификатор : 231706836667837483101683420922716862324 (0xAE511D0EB70A24A3B25B9E8641EFB774)
Полное имя : F:\Big Momma's House\Big.Momma's.House.2.(2006).BDRip.720p.(60 Fps).mkv
Формат : Matroska
Версия формата : Version 4
Размер файла : 4,26 Гбайт
Продолжительность : 1 ч. 38 м.
Общий поток : 6169 Кбит/сек
Название фильма : Дом большой мамочки 2 / Big Momma's House 2 (2006) BDRip 720p (60 Fps)
Дата кодирования : UTC 2020-10-16 08:47:43
Программа кодирования : mkvmerge v9.1.0 ('Little Earthquakes') 64bit
Библиотека кодирования : libebml v1.3.3 + libmatroska v1.4.4

Видео
Идентификатор : 1
Формат : AVC
Формат/Информация : Advanced Video Codec
Профиль формата : High@L4.1
Настройки формата : CABAC / 9 Ref Frames
Параметр CABAC формата : Да
Параметр RefFrames формата : 9 кадров
Идентификатор кодека : V_MPEG4/ISO/AVC
Продолжительность : 1 ч. 38 м.
Битрейт : 5780 Кбит/сек
Ширина : 1280 пикселей
Высота : 696 пикселей
Соотношение сторон : 1,85:1
Режим частоты кадров : Постоянный
Частота кадров : 60,000 кадров/сек
Цветовое пространство : YUV
Субдискретизация насыщенности : 4:2:0
Битовая глубина : 8 бит
Тип развёртки : Прогрессивная
Бит/(Пиксели*Кадры) : 0.108
Размер потока : 3,99 Гбайт (94%)
Заголовок : slaventi-69 ( R.G. HD-Films | 60 fps )
Библиотека кодирования : x264 core 130 r2273 b3065e6
Настройки программы : cabac=1 / ref=9 / deblock=1:-1:-1 / analyse=0x3:0x113 / me=umh / subme=9 / psy=1 / psy_rd=1.00:0.00 / mixed_ref=1 / me_range=32 / chroma_me=1 / trellis=2 / 8x8dct=1 / cqm=0 / deadzone=21,11 / fast_pskip=1 / chroma_qp_offset=-2 / threads=10 / lookahead_threads=4 / sliced_threads=0 / nr=0 / decimate=1 / interlaced=0 / bluray_compat=0 / constrained_intra=0 / bframes=5 / b_pyramid=2 / b_adapt=2 / b_bias=0 / direct=1 / weightb=1 / open_gop=0 / weightp=2 / keyint=600 / keyint_min=60 / scenecut=40 / intra_refresh=0 / rc=crf / mbtree=0 / crf=18.5 / qcomp=0.60 / qpmin=0 / qpmax=69 / qpstep=4 / ip_ratio=1.40 / pb_ratio=1.30 / aq=1:1.00
Язык : English
Default : Да
Forced : Нет

Аудио
Идентификатор : 2
Формат : AC-3
Формат/Информация : Audio Coding 3
Коммерческое название : Dolby Digital
Идентификатор кодека : A_AC3
Продолжительность : 1 ч. 38 м.
Вид битрейта : Постоянный
Битрейт : 384 Кбит/сек
Каналы : 6 каналов
Channel layout : L R C LFE Ls Rs
Частота : 48,0 КГц
Частота кадров : 31,250 кадров/сек (1536 SPF)
Битовая глубина : 16 бит
Метод сжатия : С потерями
Размер потока : 271 Мбайт (6%)
Заголовок : Dub
Язык : Russian
ServiceKind/String : Complete Main
Default : Да
Forced : Нет

Текст #1
Идентификатор : 3
Формат : UTF-8
Идентификатор кодека : S_TEXT/UTF8
Идентификатор кодека/Информация : UTF-8 Plain Text
Продолжительность : 1 ч. 32 м.
Битрейт : 84 бит/сек
ElementCount : 1062
Размер потока : 57,4 Кбайт (0%)
Язык : Russian
Default : Нет
Forced : Нет

Текст #2
Идентификатор : 4
Формат : UTF-8
Идентификатор кодека : S_TEXT/UTF8
Идентификатор кодека/Информация : UTF-8 Plain Text
Продолжительность : 1 ч. 33 м.
Битрейт : 74 бит/сек
ElementCount : 1272
Размер потока : 50,6 Кбайт (0%)
Язык : English
Default : Нет
Forced : Нет

Просьба к переливающим на другие сайты, в оформлении указывайте пожалуйста авторство группы R.G. HD-Films
Большие мамочки: Сын как отец / Big Mommas: Like Father, Like Son
Год выпуска: 2011
Страна: США
Жанр: боевик, комедия, криминал
Продолжительность: 01:47:20
Перевод: Дубляж
Субтитры: Russian, English

Режиссер: Джон Уайтселл

Бюджет: $32 000 000
Премьера в мире: 16 февраля 2011



В ролях: Мартин Лоуренс, Брэндон Т. Джексон, Джессика Лукас, Мишель Энг, Портия Даблдэй, Эмили Риос, Фэйзон Лав, Тони Кёрран, Ана Ортис, Макс Казелла

Описание: На сей раз к Тернеру присоединяется его пасынок Трент, когда они отправляются «под прикрытием» в женскую школу исполнительных видов искусства после того, как Трент становится свидетелем убийства. Представ в виде Большой Мамочки и крупной студентки Шарман, они должны найти убийцу раньше, чем он найдет их.


Качество: BDRip 720p / 60 FPS
Формат: MKV
Видео кодек: H.264
Аудио кодек: AC3
Видео: x264, 1280 x 536 ( 2,40:1 ), 4186 kbps, 60,000 fps, ( 0.102 bpp)
Аудио#1: Русский, AC-3, 48.0 KHz, 6 ch, 384 Kbps DUB
Релиз от: Автор рипа: slaventi-69
Общее
Уникальный идентификатор : 177225736397308361589481238925003134676 (0x85546F6D7C46F14F82A3874B359B16D4)
Полное имя : F:\Big Momma's House\Big.Mommas_Like.Father,Like.Son.(2011).BDRip.720p.(60 Fps).mkv
Формат : Matroska
Версия формата : Version 4
Размер файла : 3,43 Гбайт
Продолжительность : 1 ч. 47 м.
Общий поток : 4571 Кбит/сек
Название фильма : Большие мамочки: Сын как отец / Big Mommas: Like Father, Like Son (2011) BDRip 720p (60 Fps)
Дата кодирования : UTC 2020-10-16 08:53:59
Программа кодирования : mkvmerge v9.1.0 ('Little Earthquakes') 64bit
Библиотека кодирования : libebml v1.3.3 + libmatroska v1.4.4

Видео
Идентификатор : 1
Формат : AVC
Формат/Информация : Advanced Video Codec
Профиль формата : High@L4.1
Настройки формата : CABAC / 9 Ref Frames
Параметр CABAC формата : Да
Параметр RefFrames формата : 9 кадров
Идентификатор кодека : V_MPEG4/ISO/AVC
Продолжительность : 1 ч. 47 м.
Битрейт : 4186 Кбит/сек
Ширина : 1280 пикселей
Высота : 536 пикселей
Соотношение сторон : 2,40:1
Режим частоты кадров : Постоянный
Частота кадров : 60,000 кадров/сек
Цветовое пространство : YUV
Субдискретизация насыщенности : 4:2:0
Битовая глубина : 8 бит
Тип развёртки : Прогрессивная
Бит/(Пиксели*Кадры) : 0.102
Размер потока : 3,14 Гбайт (92%)
Заголовок : slaventi-69 ( R.G. HD-Films | 60 fps )
Библиотека кодирования : x264 core 130 r2273 b3065e6
Настройки программы : cabac=1 / ref=9 / deblock=1:-1:-1 / analyse=0x3:0x113 / me=umh / subme=9 / psy=1 / psy_rd=1.00:0.00 / mixed_ref=1 / me_range=32 / chroma_me=1 / trellis=2 / 8x8dct=1 / cqm=0 / deadzone=21,11 / fast_pskip=1 / chroma_qp_offset=-2 / threads=10 / lookahead_threads=4 / sliced_threads=0 / nr=0 / decimate=1 / interlaced=0 / bluray_compat=0 / constrained_intra=0 / bframes=5 / b_pyramid=2 / b_adapt=2 / b_bias=0 / direct=1 / weightb=1 / open_gop=0 / weightp=2 / keyint=600 / keyint_min=60 / scenecut=40 / intra_refresh=0 / rc=crf / mbtree=0 / crf=19.3 / qcomp=0.60 / qpmin=0 / qpmax=69 / qpstep=4 / ip_ratio=1.40 / pb_ratio=1.30 / aq=1:1.00
Язык : English
Default : Да
Forced : Нет

Аудио
Идентификатор : 2
Формат : AC-3
Формат/Информация : Audio Coding 3
Коммерческое название : Dolby Digital
Идентификатор кодека : A_AC3
Продолжительность : 1 ч. 47 м.
Вид битрейта : Постоянный
Битрейт : 384 Кбит/сек
Каналы : 6 каналов
Channel layout : L R C LFE Ls Rs
Частота : 48,0 КГц
Частота кадров : 31,250 кадров/сек (1536 SPF)
Битовая глубина : 16 бит
Метод сжатия : С потерями
Размер потока : 295 Мбайт (8%)
Заголовок : Dub
Язык : Russian
ServiceKind/String : Complete Main
Default : Да
Forced : Нет

Текст #1
Идентификатор : 3
Формат : UTF-8
Идентификатор кодека : S_TEXT/UTF8
Идентификатор кодека/Информация : UTF-8 Plain Text
Продолжительность : 1 ч. 43 м.
Битрейт : 105 бит/сек
ElementCount : 1599
Размер потока : 80,6 Кбайт (0%)
Язык : Russian
Default : Нет
Forced : Нет

Текст #2
Идентификатор : 4
Формат : UTF-8
Идентификатор кодека : S_TEXT/UTF8
Идентификатор кодека/Информация : UTF-8 Plain Text
Продолжительность : 1 ч. 46 м.
Битрейт : 80 бит/сек
ElementCount : 2029
Размер потока : 62,9 Кбайт (0%)
Язык : English
Default : Нет
Forced : Нет

Просьба к переливающим на другие сайты, в оформлении указывайте пожалуйста авторство группы R.G. HD-Films
pb.wtf



Скачать Дом большой мамочки: Трилогия через торрент http://i4.fastpic.ru/big/2011/0129/3a/ba165b2de865a12ac9b12ff033821d3a.jpg Скачать фильм Дом большой мамочки: Трилогия через торрент бесплантно в хорошем качестве Описание: Агент ФБР Малькольм Тернер, мастер перевоплощений. Он умен, обаятелен и не существует такого задания, с которым он бы не ... 9.3 10 6
Торрент: Зарегистрирован [2020-10-19 13:15] · скачан: 12 раз
Статус: √ проверено
Размер: 11.73 GB
Как cкачать? Как скачать Дом большой мамочки: Трилогия через торрент | qTorrent

28-11-2019 20:33  

Отключить всю рекламу на сайте

    Дорогой пользователь! Огромная просьба, поблагодарите релизера, оцените раздачу и оставьте свои комментарий, если Вы скачали Дом большой мамочки: Трилогия через торрент бесплатно! Внесите свою лепту в развитие PiratBit!
    Комментировать посты могут только пользователи прошедшие не сложную регистрацию
    Показать сообщения:    

    Дом большой мамочки: Трилогия через торрент
    Скачать бесплатно Дом большой мамочки: Трилогия
    Дом большой мамочки: Трилогия скачать торрент
    Дом большой мамочки: Трилогия смотреть онлайн
    Cкачать фильм Дом большой мамочки: Трилогия бесплатно
    Дом большой мамочки: Трилогия скачать торрент в хорошем качестве
    Дом большой мамочки: Трилогия смотреть онлайн бесплатно в хорошем качестве


    Вы не можете начинать темы
    Вы не можете отвечать на сообщения
    Вы не можете редактировать свои сообщения
    Вы не можете удалять свои сообщения
    Вы не можете голосовать в опросах
    Вы не можете прикреплять файлы к сообщениям
    Вы можете скачивать файлы