Ссылка на приватное зеркало нашего сайта всего за 1$. Внимание количество ограничено!!!

2 сезон

iTunes

1 сезон

1

2 сезон

2 сезон

iTunes

1 сезон

RePack

30

Новинка

ВАЖНО

ИГРА 18+

pack

RePack

MK11
pack

Забери бонус

RePack

jed

!!Акция!!

Alien_Rage

RePack

fifa19

RePack

Assassins Creed: Odyssey

RePack

NEED FOR SPEED™ PAYBACK

4 сезон

9 сезон

Бесстыжие 9 сезон

Все сериалы

все сериалы на PB.wtf

RePack

FAR CRY 5
  

Неистовый / Unhinged (Деррик Борте) [2020, Боевик, триллер, WEB-DL 1080p] [AMAZON Version] DUB [iTunes] pb.wtf

Неистовый через торрент pb.wtf

Раздают: 87 [ 1 MB/s ]
Размер: 4.7 GB | Добавлен: 1 мес. 10 д. назад | Торрент скачан:1203 раза
Скачать  

20-10-2020 12:57 Неистовый Скачать торрент  

Неистовый | Unhinged
Год выпуска: 2020
Страна: США
Студия: Burek Films, Ingenious, Solstice Studios
Жанр: Боевик, триллер
Продолжительность: 01:30:07
Перевод: Дублированный | iTunes
Субтитры: Русские (Full), английские, испанские

Режиссер: Деррик Борте

rating

В ролях: Расселл Кроу, Джимми Симпсон, Карен Писториус, Гэбриел Бейтман, Остин П. МакКензи, Энн Мари Лейтон, Майкл Пападжон, Люси Фауст, Сильвия Грэйс Крим, Стивен Луис Граш

Описание: Нет ничего опаснее человека, доведенного до точки кипения. Особенно, если жизнь обошлась с ним несправедливо и теперь ему нечего терять. Именно таким оказывается водитель автомобиля, с которым повздорила на дороге обычная мать-одиночка, не подозревая, что нажила себе безжалостного врага. Теперь он не остановится пока не преподаст страшный урок своей жертве и всем, кто ей дорог. У женщины и ее сына не остается другого выбора, кроме как попытаться выжить в этой набирающей скорость смертельной игре.

Качество: WEB-DL 1080p | AMAZON Version
Формат: MKV

Видео: MPEG-4 AVC, 1920x800, 6440 Kbit/s, 23.976 fps
Аудио#1: 48 kHz, AC3, 5.1, 384 Kbps | iTunes | RUS |
Аудио#2: 48 kHz, E-AC3, 5.1, 640 Kbps | Оригинал | ENG |
скриншот  скриншот  скриншот  скриншот  скриншот  

General
Unique ID : 36743707763300865420727320467967829339 (0x1BA494A913CCA5F4FABCE0A571C7E55B)
Complete name : D:Video111Unhinged.2020.AMZN.WEB-DL.1080p.seleZen.mkv
Format : Matroska
Format version : Version 4
File size : 4.70 GiB
Duration : 1 h 30 min
Overall bit rate : 7 466 kb/s
Movie name : Unhinged 2020 from селезень
Encoded date : UTC 2020-10-20 12:12:10
Writing application : mkvmerge v40.0.0 ('Old Town Road + Pony') 64-bit
Writing library : libebml v1.3.9 + libmatroska v1.5.2

Video
ID : 1
Format : AVC
Format/Info : Advanced Video Codec
Format profile : High@L4
Format settings : CABAC / 4 Ref Frames
Format settings, CABAC : Yes
Format settings, Reference : 4 frames
Codec ID : V_MPEG4/ISO/AVC
Duration : 1 h 30 min
Bit rate mode : Constant
Bit rate : 6 440 kb/s
Nominal bit rate : 10 000 kb/s
Width : 1 920 pixels
Height : 800 pixels
Display aspect ratio : 2.40:1
Frame rate mode : Constant
Frame rate : 23.976 (24000/1001) FPS
Color space : YUV
Chroma subsampling : 4:2:0
Bit depth : 8 bits
Scan type : Progressive
Bits/(Pixel*Frame) : 0.175
Stream size : 4.05 GiB (86%)
Language : English
Default : Yes
Forced : No
Color range : Limited
Color primaries : BT.709
Transfer characteristics : BT.709
Matrix coefficients : BT.709

Audio #1
ID : 2
Format : AC-3
Format/Info : Audio Coding 3
Commercial name : Dolby Digital
Codec ID : A_AC3
Duration : 1 h 30 min
Bit rate mode : Constant
Bit rate : 384 kb/s
Channel(s) : 6 channels
Channel layout : L R C LFE Ls Rs
Sampling rate : 48.0 kHz
Frame rate : 31.250 FPS (1536 SPF)
Compression mode : Lossy
Stream size : 247 MiB (5%)
Title : iTunes
Language : Russian
Service kind : Complete Main
Default : Yes
Forced : Yes

Audio #2
ID : 3
Format : E-AC-3
Format/Info : Enhanced AC-3
Commercial name : Dolby Digital Plus
Codec ID : A_EAC3
Duration : 1 h 30 min
Bit rate mode : Constant
Bit rate : 640 kb/s
Channel(s) : 6 channels
Channel layout : L R C LFE Ls Rs
Sampling rate : 48.0 kHz
Frame rate : 31.250 FPS (1536 SPF)
Compression mode : Lossy
Stream size : 413 MiB (9%)
Title : Original
Language : English
Service kind : Complete Main
Default : No
Forced : No

Text #1
ID : 4
Format : UTF-8
Codec ID : S_TEXT/UTF8
Codec ID/Info : UTF-8 Plain Text
Duration : 1 h 17 min
Bit rate : 90 b/s
Count of elements : 1001
Stream size : 51.3 KiB (0%)
Title : Full
Language : Russian
Default : No
Forced : No

Text #2
ID : 5
Format : UTF-8
Codec ID : S_TEXT/UTF8
Codec ID/Info : UTF-8 Plain Text
Duration : 1 h 21 min
Bit rate : 61 b/s
Count of elements : 1190
Stream size : 36.3 KiB (0%)
Title : SDH
Language : English
Default : No
Forced : No

Text #3
ID : 6
Format : UTF-8
Codec ID : S_TEXT/UTF8
Codec ID/Info : UTF-8 Plain Text
Duration : 1 h 26 min
Bit rate : 47 b/s
Count of elements : 980
Stream size : 30.2 KiB (0%)
Language : Spanish
Default : No
Forced : No

pb.wtf



Скачать Неистовый через торрент https://d.radikal.ru/d26/2010/ef/b635e60a1505.jpg Скачать фильм Неистовый через торрент бесплантно в хорошем качестве Описание: Нет ничего опаснее человека, доведенного до точки кипения. Особенно, если жизнь обошлась с ним несправедливо и теперь ему нечего ... 9.6 10 37
Info! Золотая раздача, скачанное не засчитывается.
Торрент: Зарегистрирован [2020-10-20 12:57] · скачан: 1 203 раз
Статус: √ проверено
Размер: 4.7 GB
Как cкачать? Как скачать Неистовый через торрент | qTorrent

% Раздел Тема Автор DL S | L
Ultra HD (UHD: 2K, 4K, 8K) — видео сверхвысокой чёткости [ 50.68 GB ] Неистовый / Unhinged [2020 UHD BDRemux 2160p ] +AVO [Д.Есарев] bober100 Скачать
2 | 2
Ultra HD (UHD: 2K, 4K, 8K) — видео сверхвысокой чёткости [ 60.27 GB ] Неистовый / Unhinged [2020 UHD BDRemux 2160p ] +AVO [Д.Есарев] bober100 Скачать
1 | 0
Ultra HD (UHD: 2K, 4K, 8K) — видео сверхвысокой чёткости [ 46.52 GB ] Неистовый / Unhinged [2020 UHD BDRemux 2160p] +AVO [Д.Есарев] bober100 Скачать
1 | 0
Фильмы с авторской озвучкой [ 1.46 GB ] Неистовый / Unhinged [2020 BDRip] AVO [Дмитрий Есарев] Twi7ter Скачать
73 | 7
Фильмы 2019-2020 [DVDrip, WEB-DLRip, HDrip] (DUB, MVO) [ 1.46 GB ] Неистовый / Unhinged [2020 HDRip] - Twi7ter Скачать
1057 | 64
Фильмы 2019-2020 [DVDrip, WEB-DLRip, HDrip] (DUB, MVO) [ 1.37 GB ] Неистовый / Unhinged [2020 WEB-DLRip-AVC] - ExKinoRay Enigma2010 Скачать
104 | 1
Фильмы (Blu-ray, BD-Remux, HDDVD) [ 24.58 GB ] Неистовый / Unhinged [2020 BD Remux 1080p] bober100 Скачать
33 | 3


Последний раз редактировалось: bober100 (2020-10-20 18:37), всего редактировалось 1 раз

28-11-2019 20:33  

Отключить всю рекламу на сайте

20-10-2020 14:31 Неистовый Скачать торрент  

ура наконецто))))))))pb.wtf



20-10-2020 16:18 Неистовый Скачать торрент  

благодарюpb.wtf



20-10-2020 19:17 Неистовый Скачать торрент  

вот и фильмец классный.тут уже у всех накипело.так что скоро будет.Спасибо за своевременную раздачу.Хороший фильм приятного просмотраpb.wtf



23-10-2020 08:34 Неистовый Скачать торрент  

killermax2013 писал(а):

фильм дичайшая дичь 0 из 10 все премии *золотая малина 2020* этот "шедевр" должен взять

Согласен.pb.wtf



23-10-2020 21:23 Неистовый Скачать торрент  

Фильм дно. Откуда такой рейтинг завышенный и как Рассела угораздило в этом трэшаке засняться, хз...pb.wtf



24-10-2020 19:58 Неистовый Скачать торрент  

Спасибо за фильм.
Нормальная поучительная история, нам показывают что бывает если постоянно копить в себе негативные эмоции, и не давать выхода им, человек просто может рано или поздно взорваться, что и происходит с героем Рассела Кроу. Фильм про чашу терпения которая имеет свойство переполняться.
Советую к просмотру есть над чем задуматься.
10/10pb.wtf



27-10-2020 13:03 Неистовый Скачать торрент  

Нормальный фильм.pb.wtf



03-11-2020 16:55 Неистовый Скачать торрент  

Нудота и бред.pb.wtf



    Дорогой пользователь! Огромная просьба, поблагодарите релизера, оцените раздачу и оставьте свои комментарий, если Вы скачали Неистовый через торрент бесплатно! Внесите свою лепту в развитие PiratBit!
    Комментировать посты могут только пользователи прошедшие не сложную регистрацию
    Показать сообщения:    

    Неистовый через торрент
    Скачать бесплатно Неистовый
    Неистовый скачать торрент
    Неистовый смотреть онлайн
    Cкачать фильм Неистовый бесплатно
    Неистовый скачать торрент в хорошем качестве
    Неистовый смотреть онлайн бесплатно в хорошем качестве


    Вы не можете начинать темы
    Вы не можете отвечать на сообщения
    Вы не можете редактировать свои сообщения
    Вы не можете удалять свои сообщения
    Вы не можете голосовать в опросах
    Вы не можете прикреплять файлы к сообщениям
    Вы можете скачивать файлы