Ссылка на приватное зеркало нашего сайта всего за 1$. Внимание количество ограничено!!!

2 сезон

iTunes

1 сезон

1

2 сезон

2 сезон

iTunes

1 сезон

RePack

30

Новинка

ВАЖНО

ИГРА 18+

pack

RePack

MK11
pack

Забери бонус

RePack

jed

!!Акция!!

Alien_Rage

RePack

fifa19

RePack

Assassins Creed: Odyssey

RePack

NEED FOR SPEED™ PAYBACK

4 сезон

9 сезон

Бесстыжие 9 сезон

Все сериалы

все сериалы на PB.wtf

RePack

FAR CRY 5
  

Не вижу смерти / Blind (Марсель Вальц) [2019, Ужасы, триллер, драма, WEB-DL 1080p] DUB [iTunes] pb.wtf

Не вижу смерти через торрент pb.wtf

Раздают: 4 [ 0 KB/s ]
Размер: 3.04 GB | Добавлен: 1 мес. 15 д. назад | Торрент скачан:151 раз
Скачать  

20-10-2020 13:46 Не вижу смерти Скачать торрент  

Не вижу смерти | Blind
Год выпуска: 2019
Страна: США
Студия: Silent Partners
Жанр: Ужасы, триллер, драма
Продолжительность: 01:28:12
Перевод: Дублированный | iTunes
Субтитры: отсутствуют

Режиссер: Марсель Вальц

rating

В ролях: Скарлет Салем, Джед Роуэн, Кэролайн Уильямс, Тайлер Галлант, Томас Хейли, Бен Каплан, Джессика Галетти, Шери Дэвис, Кевин Купер, Майкл Ст. Майклс

Описание: Бывшая кинозвезда, ослепнув после неудачной операции по коррекции зрения, пытается смириться с новой жизнью во тьме. Ее дни в особняке на Голливудских холмах разбавлены общением с подругой Софией и новым поклонником Люком. Но никто из них понятия не имеет о том, что в подвале дома тайно проживает еще один человек в маске, который с нетерпением ждет темноты, чтобы начать свою опасную игру.

Качество: WEB-DL 1080p
Формат: MKV

Видео: MPEG-4 AVC, 1920x808, 4553 Kbit/s, 24.000 fps
Аудио: 48 kHz, AC3, 5.1, 384 Kbps | iTunes | RUS |
скриншот  скриншот  скриншот  скриншот  скриншот  

General
Unique ID: 292604858107832644143389521628920420470 (0xDC21A553D2FCC0BECFE04AACD77E1876)
Complete name: D:\Video111\Blind.2019.WEB-DL.1080p.seleZen.mkv
Format: Matroska
Format version: Version 4
File size: 3.04 GiB
Duration: 1 h 28 min
Overall bit rate: 4 938 kb/s
Movie name: Blind 2019 from селезень
Encoded date: UTC 2020-10-20 13:33:46
Writing application: mkvmerge v40.0.0 ('Old Town Road + Pony') 64-bit
Writing library: libebml v1.3.9 + libmatroska v1.5.2

Video
ID: 1
Format: AVC
Format/Info: Advanced Video Codec
Format profile: High@L4
Format settings: CABAC / 5 Ref Frames
Format settings, CABAC: Yes
Format settings, Reference: 5 frames
Codec ID: V_MPEG4/ISO/AVC
Duration: 1 h 28 min
Bit rate: 4 553 kb/s
Width: 1 920 pixels
Height: 808 pixels
Display aspect ratio: 2.40:1
Frame rate mode: Constant
Frame rate: 24.000 FPS
Color space: YUV
Chroma subsampling: 4:2:0
Bit depth: 8 bits
Scan type: Progressive
Bits/(Pixel*Frame): 0.122
Stream size: 2.81 GiB (92%)
Language: English
Default: Yes
Forced: No
Color range: Limited
Color primaries: BT.709
Transfer characteristics: BT.709
Matrix coefficients: BT.709

Audio
ID: 2
Format: AC-3
Format/Info: Audio Coding 3
Commercial name: Dolby Digital
Codec ID: A_AC3
Duration: 1 h 28 min
Bit rate mode: Constant
Bit rate: 384 kb/s
Channel(s): 6 channels
Channel layout: L R C LFE Ls Rs
Sampling rate: 48.0 kHz
Frame rate: 31.250 FPS (1536 SPF)
Compression mode: Lossy
Stream size: 242 MiB (8%)
Title: iTunes
Language: Russian
Service kind: Complete Main
Default: Yes
Forced: Yes

Menu
00:00:00.000: en:Глава 1
00:06:23.916: en:Глава 2
00:15:34.249: en:Глава 3
00:30:10.415: en:Глава 4
00:34:33.915: en:Глава 5
00:40:54.206: en:Глава 6
00:50:13.372: en:Глава 7
01:02:39.955: en:Глава 8
01:09:44.788: en:Глава 9
01:14:57.329: en:Глава 10

pb.wtf



Скачать Не вижу смерти через торрент https://b.radikal.ru/b18/2010/33/5650799c7a0c.jpg Скачать фильм Не вижу смерти через торрент бесплантно в хорошем качестве Описание: Бывшая кинозвезда, ослепнув после неудачной операции по коррекции зрения, пытается смириться с новой жизнью во тьме. Ее дни в ... 8 10 8
Торрент: Зарегистрирован [2020-10-20 13:54] · скачан: 151 раз
Статус: √ проверено
Размер: 3.04 GB
Как cкачать? Как скачать Не вижу смерти через торрент | qTorrent

% Раздел Тема Автор DL S | L
Фильмы 2019-2020 [DVDrip, WEB-DLRip, HDrip] (DUB, MVO) [ 744 MB ] Не вижу смерти / Blind [2019 WEB-DLRip] bober100 Скачать
1 | 0
Фильмы 2019-2020 [DVDrip, WEB-DLRip, HDrip] (DUB, MVO) [ 1.46 GB ] Не вижу смерти / Blind [2019 WEB-DLRip] bober100 Скачать
2 | 0

28-11-2019 20:33  

Отключить всю рекламу на сайте

    Дорогой пользователь! Огромная просьба, поблагодарите релизера, оцените раздачу и оставьте свои комментарий, если Вы скачали Не вижу смерти через торрент бесплатно! Внесите свою лепту в развитие PiratBit!
    Комментировать посты могут только пользователи прошедшие не сложную регистрацию
    Показать сообщения:    

    Не вижу смерти через торрент
    Скачать бесплатно Не вижу смерти
    Не вижу смерти скачать торрент
    Не вижу смерти смотреть онлайн
    Cкачать фильм Не вижу смерти бесплатно
    Не вижу смерти скачать торрент в хорошем качестве
    Не вижу смерти смотреть онлайн бесплатно в хорошем качестве


    Вы не можете начинать темы
    Вы не можете отвечать на сообщения
    Вы не можете редактировать свои сообщения
    Вы не можете удалять свои сообщения
    Вы не можете голосовать в опросах
    Вы не можете прикреплять файлы к сообщениям
    Вы можете скачивать файлы