Ссылка на приватное зеркало нашего сайта всего за 1$. Внимание количество ограничено!!!

2 сезон

iTunes

1 сезон

1

2 сезон

2 сезон

iTunes

1 сезон

RePack

30

Ultimate

ВАЖНО

ИГРА 18+

pack

RePack

MK11
pack

Забери бонус

RePack

jed

!!Акция!!

Alien_Rage

RePack

fifa19

RePack

Assassins Creed: Odyssey

RePack

NEED FOR SPEED™ PAYBACK

4 сезон

9 сезон

Бесстыжие 9 сезон

Все сериалы

все сериалы на PB.wtf

RePack

FAR CRY 5
  

Печать ведьмы / Luz (Хуан Диего Эскобар Альсате) [2019, фэнтези, ужасы, вестерн, WEB-DL 1080p] DUB [iTunes] pb.wtf

Печать ведьмы через торрент pb.wtf

Раздают: 1 [ 0 KB/s ]
Размер: 3.63 GB | Добавлен: 1 мес. 6 д. назад | Торрент скачан:89 раз
Скачать  

20-10-2020 17:31 Печать ведьмы Скачать торрент  

Печать ведьмы | Luz
Год выпуска: 2019
Страна: Колумбия
Выпущено: Afasia Films, Amniótica, Egerton Crescent Productions
Жанр: фэнтези, ужасы, вестерн
Продолжительность: 01:44:05
Перевод: Дублированный | iTunes
Субтитры: отсутствуют

Режиссер: Хуан Диего Эскобар Альсате

rating

В ролях: Юри Варгас, Джим Муньос, Конрадо Осорио, Шэрон Гузман, Даниэль Паэс, Йохан Камачо, Андреа Эскивель, Марсела Робледо

Описание: В затерявшейся далеко в горах общине, возглавляемой проповедником по имени Эль Сеньор, появляется ребенок, который должен стать новым мессией, который принесёт разрушение всего и искупление грехов. И тогда три дочери проповедника начинают задумываться об истинном происхождении самого Бога, о природе любви, удовольствии и внутренней свободе.

Качество: WEB-DL 1080p
Формат: MKV

Видео: MPEG-4 AVC, 4607 Kb/s, 1920x804, 24 fps
Аудио: 48 kHz, AC3 Dolby Digital, 3/2 (L, C, R, l, r) + LFE ch, ~384 kbps
скриншот  скриншот  скриншот  скриншот  

Video
ID : 1
Format : AVC
Format/Info : Advanced Video Codec
Format profile : High@L4
Format settings : CABAC / 5 Ref Frames
Format settings, CABAC : Yes
Format settings, Reference : 5 frames
Codec ID : V_MPEG4/ISO/AVC
Duration : 1 h 44 min
Bit rate : 4 607 kb/s
Width : 1 920 pixels
Height : 804 pixels
Display aspect ratio : 2.40:1
Frame rate mode : Constant
Frame rate : 24.000 FPS
Color space : YUV
Chroma subsampling : 4:2:0
Bit depth : 8 bits
Scan type : Progressive
Bits/(Pixel*Frame) : 0.124
Stream size : 3.35 GiB (92%)
Title : LUZ_2019_WEB-DL_1080p-BLUEBIRD
Language : English
Default : Yes
Forced : No
Color range : Limited
Color primaries : BT.709
Transfer characteristics : BT.709
Matrix coefficients : BT.709

Audio
ID : 2
Format : AC-3
Format/Info : Audio Coding 3
Commercial name : Dolby Digital
Codec ID : A_AC3
Duration : 1 h 44 min
Bit rate mode : Constant
Bit rate : 384 kb/s
Channel(s) : 6 channels
Channel layout : L R C LFE Ls Rs
Sampling rate : 48.0 kHz
Frame rate : 31.250 FPS (1536 SPF)
Compression mode : Lossy
Delay relative to video : -42 ms
Stream size : 286 MiB (8%)
Title : [DUB] DD 5.1 @ 384 kbps (iTunes)
Language : Russian
Service kind : Complete Main
Default : Yes
Forced : No

Menu
00:00:00.000 : en:Глава 1
00:07:10.541 : en:Глава 2
00:13:48.707 : en:Глава 3
00:22:34.582 : en:Глава 4
00:31:37.832 : en:Глава 5
00:40:05.873 : en:Глава 6
00:49:38.998 : en:Глава 7
00:57:50.831 : en:Глава 8
01:06:07.039 : en:Глава 9
01:14:19.039 : en:Глава 10
01:22:23.247 : en:Глава 11
01:30:31.705 : en:Глава 12
01:38:47.205 : en:Глава 13

pb.wtf



Скачать Печать ведьмы через торрент https://b.radikal.ru/b32/2010/ca/fe0a8ad2e1d6.png Скачать фильм Печать ведьмы через торрент бесплантно в хорошем качестве Описание: В затерявшейся далеко в горах общине, возглавляемой проповедником по имени Эль Сеньор, появляется ребенок, который должен стать ... 10 10 4
Торрент: Зарегистрирован [2020-10-20 17:31] · скачан: 89 раз
Статус: √ проверено
Размер: 3.63 GB
Как cкачать? Как скачать Печать ведьмы через торрент | qTorrent

% Раздел Тема Автор DL S | L
Фильмы 2019-2020 [DVDrip, WEB-DLRip, HDrip] (DUB, MVO) [ 747 MB ] Печать ведьмы / Luz [2019 WEB-DLRip] bober100 Скачать
1 | 0
Фильмы 2019-2020 [DVDrip, WEB-DLRip, HDrip] (DUB, MVO) [ 1.46 GB ] Печать ведьмы / Luz [2019 WEB-DLRip] bober100 Скачать
1 | 0

28-11-2019 20:33  

Отключить всю рекламу на сайте

    Дорогой пользователь! Огромная просьба, поблагодарите релизера, оцените раздачу и оставьте свои комментарий, если Вы скачали Печать ведьмы через торрент бесплатно! Внесите свою лепту в развитие PiratBit!
    Комментировать посты могут только пользователи прошедшие не сложную регистрацию
    Показать сообщения:    

    Печать ведьмы через торрент
    Скачать бесплатно Печать ведьмы
    Печать ведьмы скачать торрент
    Печать ведьмы смотреть онлайн
    Cкачать фильм Печать ведьмы бесплатно
    Печать ведьмы скачать торрент в хорошем качестве
    Печать ведьмы смотреть онлайн бесплатно в хорошем качестве


    Вы не можете начинать темы
    Вы не можете отвечать на сообщения
    Вы не можете редактировать свои сообщения
    Вы не можете удалять свои сообщения
    Вы не можете голосовать в опросах
    Вы не можете прикреплять файлы к сообщениям
    Вы можете скачивать файлы