Ссылка на приватное зеркало нашего сайта всего за 1$. Внимание количество ограничено!!!

2 сезон

iTunes

1 сезон

1

2 сезон

2 сезон

iTunes

1 сезон

RePack

30

Новинка

ВАЖНО

ИГРА 18+

pack

RePack

MK11
pack

Забери бонус

RePack

jed

!!Акция!!

Alien_Rage

RePack

fifa19

RePack

Assassins Creed: Odyssey

RePack

NEED FOR SPEED™ PAYBACK

4 сезон

9 сезон

Бесстыжие 9 сезон

Все сериалы

все сериалы на PB.wtf

RePack

FAR CRY 5
  

Призраки войны / Ghosts of War (Эрик Бресс) [2020, Ужасы, триллер, военный, BD Remux 1080p] DUB [iTunes] +MVO [HDRezka Studio] pb.wtf

Призраки войны через торрент pb.wtf

Размер: 25.33 GB | Добавлен: 1 мес. 14 д. назад | Торрент скачан:21 раз
Скачать  

22-10-2020 06:04 Призраки войны Скачать торрент  

Призраки войны | Ghosts of War
«Страшнее врага только дьявол»

Год выпуска: 2020
Страна: Великобритания
Студия: Miscellaneous Entertainment
Жанр: Ужасы, триллер, военный
Продолжительность: 01:34:45
Перевод:
#1: Дублированный | iTunes
#2: Профессиональный многоголосый | HDRezka Studio
Субтитры: Русские (Forced [for HDRezka Studio], Full)), английские

Режиссер: Эрик Бресс

rating

В ролях: Брентон Туэйтс, Тео Росси, Кайл Галлнер, Скайлар Эстин, Алан Ричсон, Билли Зейн, Шон Тоуб, Мэттью Рис (II), Лайла Банки, Шеннон МакКэйн, Нэйтан Купер

Описание: Последние месяцы Второй мировой войны. Французская провинция. Пятеро опытных американских солдат получают приказ охранять замок, в котором еще недавно располагалось нацистское верховное командование. Эта неожиданная передышка перерастает в безумие, когда они сталкиваются со сверхъестественными силами, гораздо более страшными, чем то, что творилось на поле боя.

Качество: BD Remux 1080p
Формат: MKV

Видео: MPEG-4 AVC, 1920x1080, 33.6 Мbit/s, 24.000 fps
Аудио #01: 48 kHz, AC3, 5.1, 384 Kbps | iTunes | RUS |
Аудио #02: 48 kHz, AC3, 5.1, 448 Kbps | HDRezka Studio | RUS |
Аудио #03: 48 kHz, DTS-HD MA, 5.1, 3793 Kbps | Оригинал | ENG |
скриншот  скриншот  скриншот  скриншот  скриншот  

General
Unique ID : 14881877088194111665817902013921453876 (0xB3225307FB745ECEB0A23D0B5016734)
Complete name : D:Video111Ghosts.of.War.2020.BDREMUX.1080p.seleZen.mkv
Format : Matroska
Format version : Version 4
File size : 25.3 GiB
Duration : 1 h 34 min
Overall bit rate mode : Variable
Overall bit rate : 38.3 Mb/s
Movie name : Ghosts of War 2020 from селезень
Encoded date : UTC 2020-10-22 03:56:29
Writing application : mkvmerge v40.0.0 ('Old Town Road + Pony') 64-bit
Writing library : libebml v1.3.9 + libmatroska v1.5.2

Video
ID : 1
Format : AVC
Format/Info : Advanced Video Codec
Format profile : High@L4.1
Format settings : CABAC / 4 Ref Frames
Format settings, CABAC : Yes
Format settings, Reference : 4 frames
Codec ID : V_MPEG4/ISO/AVC
Duration : 1 h 34 min
Bit rate mode : Variable
Bit rate : 33.6 Mb/s
Maximum bit rate : 36.0 Mb/s
Width : 1 920 pixels
Height : 1 080 pixels
Display aspect ratio : 16:9
Frame rate mode : Constant
Frame rate : 24.000 FPS
Color space : YUV
Chroma subsampling : 4:2:0
Bit depth : 8 bits
Scan type : Progressive
Bits/(Pixel*Frame) : 0.676
Stream size : 22.3 GiB (88%)
Language : German
Default : Yes
Forced : No

Audio #1
ID : 2
Format : AC-3
Format/Info : Audio Coding 3
Commercial name : Dolby Digital
Codec ID : A_AC3
Duration : 1 h 34 min
Bit rate mode : Constant
Bit rate : 384 kb/s
Channel(s) : 6 channels
Channel layout : L R C LFE Ls Rs
Sampling rate : 48.0 kHz
Frame rate : 31.250 FPS (1536 SPF)
Compression mode : Lossy
Stream size : 260 MiB (1%)
Title : iTunes
Language : Russian
Service kind : Complete Main
Default : Yes
Forced : Yes

Audio #2
ID : 3
Format : AC-3
Format/Info : Audio Coding 3
Commercial name : Dolby Digital
Codec ID : A_AC3
Duration : 1 h 34 min
Bit rate mode : Constant
Bit rate : 448 kb/s
Channel(s) : 6 channels
Channel layout : L R C LFE Ls Rs
Sampling rate : 48.0 kHz
Frame rate : 31.250 FPS (1536 SPF)
Compression mode : Lossy
Stream size : 304 MiB (1%)
Title : MVO [HDRezka Studio]
Language : Russian
Service kind : Complete Main
Default : No
Forced : No

Audio #3
ID : 4
Format : DTS XLL
Format/Info : Digital Theater Systems
Commercial name : DTS-HD Master Audio
Codec ID : A_DTS
Duration : 1 h 34 min
Bit rate mode : Variable
Bit rate : 3 793 kb/s
Channel(s) : 6 channels
Channel layout : C L R Ls Rs LFE
Sampling rate : 48.0 kHz
Frame rate : 93.750 FPS (512 SPF)
Bit depth : 24 bits
Compression mode : Lossless
Stream size : 2.51 GiB (10%)
Title : Original
Language : English
Default : No
Forced : No

Text #1
ID : 5
Format : UTF-8
Codec ID : S_TEXT/UTF8
Codec ID/Info : UTF-8 Plain Text
Duration : 1 h 26 min
Bit rate : 5 b/s
Count of elements : 83
Stream size : 3.72 KiB (0%)
Title : Forced [For HDRezka Studio]
Language : Russian
Default : No
Forced : No

Text #2
ID : 6
Format : UTF-8
Codec ID : S_TEXT/UTF8
Codec ID/Info : UTF-8 Plain Text
Duration : 1 h 27 min
Bit rate : 68 b/s
Count of elements : 807
Stream size : 43.9 KiB (0%)
Title : Full
Language : Russian
Default : No
Forced : No

Text #3
ID : 7
Format : UTF-8
Codec ID : S_TEXT/UTF8
Codec ID/Info : UTF-8 Plain Text
Duration : 1 h 26 min
Bit rate : 36 b/s
Count of elements : 796
Stream size : 23.2 KiB (0%)
Title : Full
Language : English
Default : No
Forced : No

Text #4
ID : 8
Format : UTF-8
Codec ID : S_TEXT/UTF8
Codec ID/Info : UTF-8 Plain Text
Duration : 1 h 27 min
Bit rate : 44 b/s
Count of elements : 1073
Stream size : 28.6 KiB (0%)
Title : SDH
Language : English
Default : No
Forced : No

Menu
00:00:00.000 : de:Глава 01
00:02:47.833 : de:Глава 02
00:09:47.542 : de:Глава 03
00:19:08.625 : de:Глава 04
00:22:22.333 : de:Глава 05
00:25:54.083 : de:Глава 06
00:29:59.292 : de:Глава 07
00:36:36.625 : de:Глава 08
00:46:54.583 : de:Глава 09
00:51:20.500 : de:Глава 10
00:56:07.417 : de:Глава 11
01:03:42.750 : de:Глава 12
01:08:02.833 : de:Глава 13
01:15:33.083 : de:Глава 14
01:23:25.250 : de:Глава 15
01:27:49.542 : de:Глава 16

pb.wtf



Скачать Призраки войны через торрент https://i112.fastpic.ru/big/2020/0726/96/cf11cc6d4efc2eb1ff1ef267edf55f96.jpg Скачать фильм Призраки войны через торрент бесплантно в хорошем качестве Описание: Последние месяцы Второй мировой войны. Французская провинция. Пятеро опытных американских солдат получают приказ охранять замок, ... 10 10 3
Торрент: Зарегистрирован [2020-10-22 06:04] · скачан: 21 раз
Статус: √ проверено
Размер: 25.33 GB
Как cкачать? Как скачать Призраки войны через торрент | qTorrent

% Раздел Тема Автор DL S | L
Фильмы 2019-2020 [DVDrip, WEB-DLRip, HDrip] (DUB, MVO) [ 2.69 GB ] Призраки войны / Ghosts of War [2020 военный BDRip-AVC] +MVO [HDRezka Studio] bober100 Скачать
3 | 0
Фильмы 2019-2020 [DVDrip, WEB-DLRip, HDrip] (DUB, MVO) [ 1.46 GB ] Призраки войны / Ghosts of War [2020 военный BDRip] MVO [HDRezka Studio] Twi7ter Скачать
16 | 0
Фильмы 2019-2020 [DVDrip, WEB-DLRip, HDrip] (DUB, MVO) [ 1.46 GB ] Призраки войны / Ghosts of War [2020 военный BDRip] MVO [HDRezka Studio] bober100 Скачать
4 | 0
Фильмы 2019-2020 [DVDrip, WEB-DLRip, HDrip] (DUB, MVO) [ 1.46 GB ] Призраки войны / Ghosts of War [2020 военный BDRip] bober100 Скачать
3 | 0
Фильмы [HD 720p, 1080p] (Хороший звук DUB, MVO) [ 4.94 GB ] Призраки войны / Ghosts of War [2020 военный BDRip 720p] +MVO [HDRezka Studio] bober100 Скачать
1 | 0
Фильмы [HD 720p, 1080p] (Хороший звук DUB, MVO) [ 9.11 GB ] Призраки войны / Ghosts of War [2020 военный BDRip 1080p] +MVO [HDRezka Studio] bober100 Скачать
3 | 0
Фильмы 2019-2020 [DVDrip, WEB-DLRip, HDrip] (DUB, MVO) [ 1.41 GB ] Призраки войны / Ghosts of War [2020 военный BDRip-AVC] bober100 Скачать
1 | 0

28-11-2019 20:33  

Отключить всю рекламу на сайте

25-10-2020 05:08 Призраки войны Скачать торрент  

Фильм классный...но концовка, в конце местами чушь конечно...но, посмотреть конечно стоит однозначно.pb.wtf



    Дорогой пользователь! Огромная просьба, поблагодарите релизера, оцените раздачу и оставьте свои комментарий, если Вы скачали Призраки войны через торрент бесплатно! Внесите свою лепту в развитие PiratBit!
    Комментировать посты могут только пользователи прошедшие не сложную регистрацию
    Показать сообщения:    

    Призраки войны через торрент
    Скачать бесплатно Призраки войны
    Призраки войны скачать торрент
    Призраки войны смотреть онлайн
    Cкачать фильм Призраки войны бесплатно
    Призраки войны скачать торрент в хорошем качестве
    Призраки войны смотреть онлайн бесплатно в хорошем качестве


    Вы не можете начинать темы
    Вы не можете отвечать на сообщения
    Вы не можете редактировать свои сообщения
    Вы не можете удалять свои сообщения
    Вы не можете голосовать в опросах
    Вы не можете прикреплять файлы к сообщениям
    Вы можете скачивать файлы