Ссылка на приватное зеркало нашего сайта всего за 1$. Внимание количество ограничено!!!

2 сезон

iTunes

1 сезон

1

2 сезон

2 сезон

iTunes

1 сезон

RePack

30

Новинка

ВАЖНО

ИГРА 18+

pack

RePack

MK11
pack

Забери бонус

RePack

jed

!!Акция!!

Alien_Rage

RePack

fifa19

RePack

Assassins Creed: Odyssey

RePack

NEED FOR SPEED™ PAYBACK

4 сезон

9 сезон

Бесстыжие 9 сезон

Все сериалы

все сериалы на PB.wtf

RePack

FAR CRY 5
  

Клаустрофобы: Квест в Москве / Follow Me (Уилл Верник) [2020, Ужасы, триллер, WEB-DL 1080p] DUB [iTunes] pb.wtf

Клаустрофобы: Квест в Москве через торрент pb.wtf

Раздают: 9 [ 64 KB/s ]
Размер: 4.29 GB | Добавлен: 1 мес. 6 д. назад | Торрент скачан:231 раз
Скачать  

22-10-2020 22:58 Клаустрофобы: Квест в Москве Скачать торрент  

Клаустрофобы: Квест в Москве | Follow Me
Год выпуска: 2020
Страна: США
Студия: Escape Productions
Жанр: Ужасы, триллер
Продолжительность: 01:31:44
Перевод: Дублированный | iTunes
Субтитры: Английские

Режиссер: Уилл Верник

rating

В ролях: Холлэнд Роден, Ронен Рубинштейн, Павел Личникофф, Кигэн Аллен, Кимберли Куинн, Дензел Уитакер, Эмилия Арес Зорян, Равиль Исянов, Доминик Паке, Эмили Хинклер

Описание: На протяжении многих лет фанат экстремальных приключений Коул ведет видеоблог, в котором делится с огромной армией своих подписчиков увлекательным и зрелищным контентом. Готовясь к 10-ой годовщине создания видеоблога Коула, его близкие друзья планируют необычный сюрприз: прохождение сложнейшего квеста в Москве. Когда герой узнает, что долгожданный подарок — всего лишь квест, он крайне расстроен, ведь надеялся записать ролик о чем-то более необычном для своих поклонников. Но то, что начинается как обычная приключенческая игра, вскоре превращается в борьбу за выживание, за которой следят миллионы зрителей в прямом эфире...

Качество: WEB-DL 1080p
Формат: MKV

Видео: MPEG-4 AVC, 1920x816, 5668 Kbit/s, 23.976 fps
Аудио#1: 48 kHz, AC3, 5.1, 384 Kbps | iTunes | RUS |
Аудио#2: 48 kHz, E-AC3, 5.1, 640 Kbps | Оригинал | ENG |
скриншот  скриншот  скриншот  скриншот  скриншот  

General
Unique ID : 324128098806081870589707229731117606816 (0xF3D8CD16E85F1472FF41FF5B17B027A0)
Complete name : D:Video111Follow.Me.2020.WEB-DL.1080p.seleZen.mkv
Format : Matroska
Format version : Version 4
File size : 4.29 GiB
Duration : 1 h 31 min
Overall bit rate : 6 694 kb/s
Movie name : Follow Me 2020 from селезень
Encoded date : UTC 2020-10-22 22:14:28
Writing application : mkvmerge v40.0.0 ('Old Town Road + Pony') 64-bit
Writing library : libebml v1.3.9 + libmatroska v1.5.2

Video
ID : 1
Format : AVC
Format/Info : Advanced Video Codec
Format profile : High@L4
Format settings : CABAC / 4 Ref Frames
Format settings, CABAC : Yes
Format settings, Reference : 4 frames
Codec ID : V_MPEG4/ISO/AVC
Duration : 1 h 31 min
Bit rate mode : Constant
Bit rate : 5 668 kb/s
Nominal bit rate : 10 000 kb/s
Width : 1 920 pixels
Height : 816 pixels
Display aspect ratio : 2.35:1
Frame rate mode : Constant
Frame rate : 23.976 (24000/1001) FPS
Color space : YUV
Chroma subsampling : 4:2:0
Bit depth : 8 bits
Scan type : Progressive
Bits/(Pixel*Frame) : 0.151
Stream size : 3.63 GiB (85%)
Language : English
Default : Yes
Forced : No
Color range : Limited
Color primaries : BT.709
Transfer characteristics : BT.709
Matrix coefficients : BT.709

Audio #1
ID : 2
Format : AC-3
Format/Info : Audio Coding 3
Commercial name : Dolby Digital
Codec ID : A_AC3
Duration : 1 h 31 min
Bit rate mode : Constant
Bit rate : 384 kb/s
Channel(s) : 6 channels
Channel layout : L R C LFE Ls Rs
Sampling rate : 48.0 kHz
Frame rate : 31.250 FPS (1536 SPF)
Compression mode : Lossy
Stream size : 252 MiB (6%)
Title : iTunes
Language : Russian
Service kind : Complete Main
Default : Yes
Forced : Yes

Audio #2
ID : 3
Format : E-AC-3
Format/Info : Enhanced AC-3
Commercial name : Dolby Digital Plus
Codec ID : A_EAC3
Duration : 1 h 31 min
Bit rate mode : Constant
Bit rate : 640 kb/s
Channel(s) : 6 channels
Channel layout : L R C LFE Ls Rs
Sampling rate : 48.0 kHz
Frame rate : 31.250 FPS (1536 SPF)
Compression mode : Lossy
Stream size : 420 MiB (10%)
Title : Original
Language : English
Service kind : Complete Main
Default : No
Forced : No

Text
ID : 4
Format : UTF-8
Codec ID : S_TEXT/UTF8
Codec ID/Info : UTF-8 Plain Text
Duration : 1 h 27 min
Bit rate : 68 b/s
Count of elements : 1594
Stream size : 43.5 KiB (0%)
Title : SDH
Language : English
Default : No
Forced : No

pb.wtf



Скачать Клаустрофобы: Квест в Москве через торрент https://i114.fastpic.ru/big/2020/1023/ef/918c497571a491ee7bc0db631fdf4cef.jpg Скачать фильм Клаустрофобы: Квест в Москве через торрент бесплантно в хорошем качестве Описание: На протяжении многих лет фанат экстремальных приключений Коул ведет видеоблог, в котором делится с огромной армией своих ... 9 10 9
Торрент: Зарегистрирован [2020-10-22 22:58] · скачан: 231 раз
Статус: √ проверено
Размер: 4.29 GB
Как cкачать? Как скачать Клаустрофобы: Квест в Москве через торрент | qTorrent

% Раздел Тема Автор DL S | L
Фильмы 2019-2020 [DVDrip, WEB-DLRip, HDrip] (DUB, MVO) [ 1.42 GB ] Клаустрофобы: Квест в Москве / Follow Me [2020 BDRip] - Twi7ter Скачать
35 | 0
Фильмы 2019-2020 [DVDrip, WEB-DLRip, HDrip] (DUB, MVO) [ 746 MB ] Клаустрофобы: Квест в Москве / Follow Me [2020 HDRip] bober100 Скачать
3 | 0
Фильмы 2019-2020 [DVDrip, WEB-DLRip, HDrip] (DUB, MVO) [ 2.13 GB ] Клаустрофобы: Квест в Москве / Follow Me [2020 BDRip-AVC] bober100 Скачать
4 | 0
Фильмы (Blu-ray, BD-Remux, HDDVD) [ 19.61 GB ] Клаустрофобы: Квест в Москве / Follow Me [2020 BD Remux 1080p] bober100 Скачать
2 | 0
Фильмы [HD 720p, 1080p] (Хороший звук DUB, MVO) [ 9.21 GB ] Клаустрофобы: Квест в Москве / Follow Me [2020 BDRip 1080p] bober100 Скачать
3 | 0
Фильмы 2019-2020 [DVDrip, WEB-DLRip, HDrip] (DUB, MVO) [ 1.45 GB ] Клаустрофобы: Квест в Москве / Follow Me [2020 BDRip] bober100 Скачать
3 | 0
Фильмы 2019-2020 [DVDrip, WEB-DLRip, HDrip] (DUB, MVO) [ 1.65 GB ] Клаустрофобы: Квест в Москве / Follow Me [2020 WEB-DLRip-AVC] [MVO] [@MUZOBOZ@] от MediaBit Lithuania Скачать
14 | 0

28-11-2019 20:33  

Отключить всю рекламу на сайте

24-10-2020 23:17 Клаустрофобы: Квест в Москве Скачать торрент  

Первые полчаса- это даже не шлак- ШЛАЧИЩЕ. Потом ещё час- дичайший идиотизм. На редкого любителя подобного г...на. Как по мне- полтора часа жизни- "коту под хвост".pb.wtf



    Дорогой пользователь! Огромная просьба, поблагодарите релизера, оцените раздачу и оставьте свои комментарий, если Вы скачали Клаустрофобы: Квест в Москве через торрент бесплатно! Внесите свою лепту в развитие PiratBit!
    Комментировать посты могут только пользователи прошедшие не сложную регистрацию
    Показать сообщения:    

    Клаустрофобы: Квест в Москве через торрент
    Скачать бесплатно Клаустрофобы: Квест в Москве
    Клаустрофобы: Квест в Москве скачать торрент
    Клаустрофобы: Квест в Москве смотреть онлайн
    Cкачать фильм Клаустрофобы: Квест в Москве бесплатно
    Клаустрофобы: Квест в Москве скачать торрент в хорошем качестве
    Клаустрофобы: Квест в Москве смотреть онлайн бесплатно в хорошем качестве


    Вы не можете начинать темы
    Вы не можете отвечать на сообщения
    Вы не можете редактировать свои сообщения
    Вы не можете удалять свои сообщения
    Вы не можете голосовать в опросах
    Вы не можете прикреплять файлы к сообщениям
    Вы можете скачивать файлы