Anonymous, доброй ночи, присоединяйтесь к нам в Telegram!, здесь всегда актуальный адрес сайта, оперативная поддержка и многое другое!

>

5.6

iTunes

7.4

iTunes

7.9

MVO

1

7.7

1 сезон

6.8

iTunes

7.3

1 сезон

13

6.7

1 сезон

8.3

RePack

30

ОНЛАЙН

pack

9.9

Лицензия

ВАЖНО

ИГРА 18+

pack

7.3

RePack

MK11

7.7

RePack

jed

7.8

RePack

fifa19

8.5

RePack

RDR2

RePack

NEED FOR SPEED™ PAYBACK

4 сезон

9 сезон

Бесстыжие 9 сезон

Все сериалы

все сериалы на PB.wtf

RePack

FAR CRY 5

Anonymous, доброй ночи, мы катастрофически не успеваем собрать деньги на оплату серверов, помогите нам пожалуйста 5,10,15р., для нас важна любая помощь . В качестве благодарности мы отключим Вам всю рекламу на сайте (укажите свой ник в строку Ваше имя)!

×
  
Magnet ссылка

Зона комфорта / Серии: 1-7 из 7 (Михаил Шулаев) [2020, Комедия, WEB-DL 1080p] 18+ pb.wtf

Зона комфорта через торрент pb.wtf

Раздают: 3 [ 41 KB/s ]
Размер: 5.93 GB | Добавлен: 11 мес. назад | Торрент скачан:672 раза
Смотреть онлайн Зона комфорта | Скачать    Ребята, помогите собрать деньги на оплату серверов!!!

23-10-2020 08:05 Зона комфорта Скачать торрент  

Зона комфорта
Год выпуска: 2020
Производство: Medium Quality Production
Жанр: Комедия
Продолжительность: 00:27:00
Перевод: Не требуется
Версия 18+. Внимание! Присутствует ненормативная лексика.
Субтитры: нет
Режиссёр: Михаил Шулаев
В ролях: Екатерина Молоховская, Гарик Харламов, Степан Девонин, Ирина Серова, Евгений Сытый, Ульяна Чжан, Кай Алекс Гетц, Павел Алексеев (III), Екатерина Шкуро, Татьяна Лялина, Сергей Ланбамин, Евгений Сыркин, Жаргал Бадмацыренов, Амаду Мамадаков, Сергей Плаксин, Ирина Бякова, Егор Бакулин, Андрей Трушин
Описание: Комедийный скринлайф-сериал.
Ярослав Костров (Гарик Харламов) — хамоватый и изворотливый владелец небольшой транспортной компании в Мурманске, по стечению обстоятельств попадает в норвежскую тюрьму, где уровень комфорта напоминает хорошие гостиницы со всеми удобствами и интернетом. Но единственное, что теперь связывает героя с домом, — это окно «Скайпа», через которое ему придётся как-то выпутываться из сложившихся обстоятельств, противостоять мафии, контролировать свой бизнес, стараться не потерять жену и воспитывать детей, которые по «скайпу» воспитываться отказываются…
Качество: WEB-DL (1080p)
Формат: MKV
Видео кодек: AVC
Аудио кодек: AC3
Видео: MPEG-4 AVC, ~ 4500 Кбит/с, 1920x1072
Аудио: 48 kHz, AC3 Dolby Digital, 2 ch, 192 Kbps

Реклама: Нет
General
Unique ID : 217317114351877386195581392272804581492 (0xA37DC0F8C3224C51B94214386B189074)
Complete name : G:\Zona.komforta.2020.WEB-DL.(1080p).Getty\Zona.komforta.e01.2020.WEB-DL.(1080p).Getty.mkv
Format : Matroska
Format version : Version 4
File size : 795 MiB
Duration : 24 min 23 s
Overall bit rate mode : Variable
Overall bit rate : 4 555 kb/s
Movie name : Zona.komforta.e01.2020.WEB-DL.(1080p).Getty
Encoded date : UTC 2020-10-22 07:19:52
Writing application : mkvmerge v7.8.0 ('River Man') 32bit built on Mar 27 2015 16:18:02
Writing library : libebml v1.3.1 + libmatroska v1.4.2

Video
ID : 1
Format : AVC
Format/Info : Advanced Video Codec
Format profile : High@L4
Format settings : CABAC / 1 Ref Frames
Format settings, CABAC : Yes
Format settings, Reference : 1 frame
Codec ID : V_MPEG4/ISO/AVC
Duration : 24 min 23 s
Bit rate mode : Variable
Bit rate : 4 272 kb/s
Maximum bit rate : 4 500 kb/s
Width : 1 920 pixels
Height : 1 072 pixels
Display aspect ratio : 16:9
Frame rate mode : Constant
Frame rate : 25.000 FPS
Color space : YUV
Chroma subsampling : 4:2:0
Bit depth : 8 bits
Scan type : Progressive
Bits/(Pixel*Frame) : 0.083
Stream size : 745 MiB (94%)
Default : Yes
Forced : No
Duration_Source : General_Duration

Audio
ID : 2
Format : AC-3
Format/Info : Audio Coding 3
Commercial name : Dolby Digital
Codec ID : A_AC3
Duration : 24 min 23 s
Bit rate mode : Constant
Bit rate : 192 kb/s
Channel(s) : 2 channels
Channel layout : L R
Sampling rate : 48.0 kHz
Frame rate : 31.250 FPS (1536 SPF)
Compression mode : Lossy
Stream size : 33.5 MiB (4%)
Service kind : Complete Main
Default : Yes
Forced : No
Duration_Source : General_Duration
скриншот  скриншот  скриншот  
(1) остановить скачивание,
(2) удалить старый торрент у себя из клиента (старые серии удалять не надо),
(3) скачать новый торрент и запустить его у себя в клиенте вместо старого, при этом указать клиенту путь в старую папку куда и должно происходить скачивание новых серий.
Ваш клиент при этом должен произвести хеширование (проверку) старой папки (если не производит сам - помогите ему сделать это), и будет докачивать только те серии которых у вас ещё нет. Старые серии при этом не удаляются, а продолжают раздаваться!
Eсли вы уже удалили старые серии, то предотвратить повторную закачку старых серий можно, отжав галочку в соответсвующих местах при запуске нового торрента. По возможности, желательно не удалять старые серии как можно дольше чтобы релизёр не столько продолжал раздавать старые серии, а смог сконцентрироваться на новых
.
pb.wtf



Скачать Зона комфорта через торрент https://i114.fastpic.ru/big/2020/1022/d0/92f29f9349de61fe483999f613ce11d0.jpg Скачать, смотреть онлайн Зона комфорта бесплантно в хорошем качестве Описание: Комедийный скринлайф-сериал.Ярослав Костров (Гарик Харламов) — хамоватый и изворотливый владелец небольшой транспортной компании ... 9.8 10 41
Info! Золотая раздача, скачанное не засчитывается.
Торрент: Зарегистрирован [2020-11-09 13:18] · скачан: 672 раз
Статус: √ проверено
Размер: 5.93 GB
Как cкачать? Как скачать Зона комфорта через торрент | UTorrent

% Раздел Тема Автор DL S | L
TNT serials [ 2.34 GB ] Зона комфорта / Серии: 1-7 из 7 [2020 WEBRip-AVC] 18+ killermax2013 Скачать
2 | 0

28-11-2019 20:33  

Отключить всю рекламу на сайте

19-12-2020 11:43 Зона комфорта Скачать торрент  

Да удивление очень смешной сериал советую всем.pb.wtf



    Дорогой пользователь! Огромная просьба, поблагодарите релизера, оцените раздачу и оставьте свои комментарий, если Вы скачали Зона комфорта через торрент бесплатно!
    Комментировать посты могут только пользователи прошедшие не сложную регистрацию
    Показать сообщения:    

    Зона комфорта через торрент
    Скачать бесплатно Зона комфорта
    Зона комфорта скачать торрент
    Зона комфорта смотреть онлайн
    Cкачать фильм Зона комфорта бесплатно
    Зона комфорта скачать торрент в хорошем качестве
    Зона комфорта смотреть онлайн бесплатно в хорошем качестве


    Вы не можете начинать темы
    Вы не можете отвечать на сообщения
    Вы не можете редактировать свои сообщения
    Вы не можете удалять свои сообщения
    Вы не можете голосовать в опросах
    Вы не можете прикреплять файлы к сообщениям
    Вы можете скачивать файлы