Anonymous, добрый день, присоединяйтесь к нам в Telegram!, здесь всегда актуальный адрес сайта, оперативная поддержка и многое другое!

>

5.5

iTunes

7.4

iTunes

7.9

iTunes

1

7.7

1 сезон

6.8

iTunes

7.3

1 сезон

13

6.7

1 сезон

8.3

RePack

30

ULTIMATE

pack

9.9

Лицензия

ВАЖНО

ИГРА 18+

pack

7.3

RePack

MK11

7.7

RePack

jed

7.8

RePack

fifa19

8.5

RePack

RDR2

RePack

NEED FOR SPEED™ PAYBACK

4 сезон

9 сезон

Бесстыжие 9 сезон

Все сериалы

все сериалы на PB.wtf

RePack

FAR CRY 5

Anonymous, добрый день, мы катастрофически не успеваем собрать деньги на оплату серверов, помогите нам пожалуйста 5,10,15р., для нас важна любая помощь . В качестве благодарности мы отключим Вам всю рекламу на сайте (укажите свой ник в строку Ваше имя)!

×
  
Magnet ссылка

Зона комфорта / Серии: 1-7 из 7 (Михаил Шулаев) [2020, Комедия, WEBRip-AVC] 18+ pb.wtf

Зона комфорта через торрент pb.wtf

Раздают: 3 [ 0 KB/s ] Качают: 1 [ 0 KB/s ]
Размер: 2.34 GB | Добавлен: 11 мес. назад | Торрент скачан:422 раза
Смотреть онлайн Зона комфорта | Скачать    Ребята, помогите собрать деньги на оплату серверов!!!

23-10-2020 08:12 Зона комфорта Скачать торрент  

Зона комфорта
Год выпуска: 2020
Производство: Medium Quality Production
Жанр: Комедия
Продолжительность: 00:27:00
Перевод: Не требуется
Версия 18+. Внимание! Присутствует ненормативная лексика.
Субтитры: нет
Режиссёр: Михаил Шулаев
В ролях: Екатерина Молоховская, Гарик Харламов, Степан Девонин, Ирина Серова, Евгений Сытый, Ульяна Чжан, Кай Алекс Гетц, Павел Алексеев (III), Екатерина Шкуро, Татьяна Лялина, Сергей Ланбамин, Евгений Сыркин, Жаргал Бадмацыренов, Амаду Мамадаков, Сергей Плаксин, Ирина Бякова, Егор Бакулин, Андрей Трушин
Описание: Комедийный скринлайф-сериал.
Ярослав Костров (Гарик Харламов) — хамоватый и изворотливый владелец небольшой транспортной компании в Мурманске, по стечению обстоятельств попадает в норвежскую тюрьму, где уровень комфорта напоминает хорошие гостиницы со всеми удобствами и интернетом. Но единственное, что теперь связывает героя с домом, — это окно «Скайпа», через которое ему придётся как-то выпутываться из сложившихся обстоятельств, противостоять мафии, контролировать свой бизнес, стараться не потерять жену и воспитывать детей, которые по «скайпу» воспитываться отказываются…
Качество: WEBRip-AVC
Формат: MKV
Видео кодек: AVC
Аудио кодек: AC3
Видео: MPEG-4 AVC, ~ 1600 Кбит/с, 1024x576, 25 кадр/с
Аудио: 48 kHz, AC3 Dolby Digital, 2 ch, 192 Kbps

Реклама: Нет
General
Unique ID : 240435294670941398775084445599086354185 (0xB4E22743381D044E9094373689DF1F09)
Complete name : G:\Зона комфорта.(2020).WEBRip.(AVC).Files-x\01.Zona.komforta.(2020).WEBRip.(AVC).by.Серый1779.Files-x.mkv
Format : Matroska
Format version : Version 2
File size : 313 MiB
Duration : 24 min 23 s
Overall bit rate : 1 793 kb/s
Encoded date : UTC 2020-10-22 11:07:54
Writing application : mkvmerge v7.8.0 ('River Man') 32bit built on Apr 3 2015 12:11:22
Writing library : libebml v1.3.1 + libmatroska v1.4.2

Video
ID : 1
Format : AVC
Format/Info : Advanced Video Codec
Format profile : High@L4.1
Format settings : CABAC / 9 Ref Frames
Format settings, CABAC : Yes
Format settings, Reference : 9 frames
Codec ID : V_MPEG4/ISO/AVC
Duration : 24 min 23 s
Bit rate : 1 600 kb/s
Width : 1 024 pixels
Height : 576 pixels
Display aspect ratio : 16:9
Frame rate mode : Constant
Frame rate : 25.000 FPS
Color space : YUV
Chroma subsampling : 4:2:0
Bit depth : 8 bits
Scan type : Progressive
Bits/(Pixel*Frame) : 0.109
Stream size : 273 MiB (87%)
Writing library : x264 core 146 r2538 121396c
Encoding settings : cabac=1 / ref=9 / deblock=1:-2:-1 / analyse=0x3:0x133 / me=umh / subme=9 / psy=1 / psy_rd=1.00:0.15 / mixed_ref=1 / me_range=32 / chroma_me=1 / trellis=2 / 8x8dct=1 / cqm=0 / deadzone=21,11 / fast_pskip=0 / chroma_qp_offset=-3 / threads=18 / lookahead_threads=3 / sliced_threads=0 / nr=0 / decimate=1 / interlaced=0 / bluray_compat=0 / constrained_intra=0 / bframes=9 / b_pyramid=2 / b_adapt=2 / b_bias=0 / direct=1 / weightb=1 / open_gop=0 / weightp=2 / keyint=250 / keyint_min=25 / scenecut=40 / intra_refresh=0 / rc=2pass / mbtree=0 / bitrate=1600 / ratetol=1.0 / qcomp=0.60 / qpmin=0 / qpmax=69 / qpstep=4 / cplxblur=20.0 / qblur=0.5 / ip_ratio=1.40 / pb_ratio=1.30 / aq=2:1.00
Default : Yes
Forced : No
Color range : Limited
Color primaries : BT.709
Transfer characteristics : BT.709
Matrix coefficients : BT.709
Duration_Source : General_Duration

Audio
ID : 2
Format : AC-3
Format/Info : Audio Coding 3
Commercial name : Dolby Digital
Codec ID : A_AC3
Duration : 24 min 23 s
Bit rate mode : Constant
Bit rate : 192 kb/s
Channel(s) : 2 channels
Channel layout : L R
Sampling rate : 48.0 kHz
Frame rate : 31.250 FPS (1536 SPF)
Compression mode : Lossy
Stream size : 33.5 MiB (11%)
Service kind : Complete Main
Default : Yes
Forced : No
Duration_Source : General_Duration
скриншот  скриншот  скриншот  
(1) остановить скачивание,
(2) удалить старый торрент у себя из клиента (старые серии удалять не надо),
(3) скачать новый торрент и запустить его у себя в клиенте вместо старого, при этом указать клиенту путь в старую папку куда и должно происходить скачивание новых серий.
Ваш клиент при этом должен произвести хеширование (проверку) старой папки (если не производит сам - помогите ему сделать это), и будет докачивать только те серии которых у вас ещё нет. Старые серии при этом не удаляются, а продолжают раздаваться!
Eсли вы уже удалили старые серии, то предотвратить повторную закачку старых серий можно, отжав галочку в соответсвующих местах при запуске нового торрента. По возможности, желательно не удалять старые серии как можно дольше чтобы релизёр не столько продолжал раздавать старые серии, а смог сконцентрироваться на новых
.
pb.wtf



Скачать Зона комфорта через торрент https://i114.fastpic.ru/big/2020/1022/d0/92f29f9349de61fe483999f613ce11d0.jpg Скачать, смотреть онлайн Зона комфорта бесплантно в хорошем качестве Описание: Комедийный скринлайф-сериал.Ярослав Костров (Гарик Харламов) — хамоватый и изворотливый владелец небольшой транспортной компании ... 9.5 10 17
Торрент: Зарегистрирован [2020-11-10 07:02] · скачан: 422 раз
Статус: √ проверено
Размер: 2.34 GB
Как cкачать? Как скачать Зона комфорта через торрент | UTorrent

% Раздел Тема Автор DL S | L
TNT serials [ 5.93 GB ] Зона комфорта / Серии: 1-7 из 7 [2020 WEB-DL 1080p] 18+ killermax2013 Скачать
9 | 2

28-11-2019 20:33  

Отключить всю рекламу на сайте

23-12-2020 19:35 Зона комфорта Скачать торрент  

спасибо за раздачуpb.wtf



    Дорогой пользователь! Огромная просьба, поблагодарите релизера, оцените раздачу и оставьте свои комментарий, если Вы скачали Зона комфорта через торрент бесплатно!
    Комментировать посты могут только пользователи прошедшие не сложную регистрацию
    Показать сообщения:    

    Зона комфорта через торрент
    Скачать бесплатно Зона комфорта
    Зона комфорта скачать торрент
    Зона комфорта смотреть онлайн
    Cкачать фильм Зона комфорта бесплатно
    Зона комфорта скачать торрент в хорошем качестве
    Зона комфорта смотреть онлайн бесплатно в хорошем качестве


    Вы не можете начинать темы
    Вы не можете отвечать на сообщения
    Вы не можете редактировать свои сообщения
    Вы не можете удалять свои сообщения
    Вы не можете голосовать в опросах
    Вы не можете прикреплять файлы к сообщениям
    Вы можете скачивать файлы