Ссылка на приватное зеркало нашего сайта всего за 1$. Внимание количество ограничено!!!

2 сезон

iTunes

1 сезон

1

2 сезон

2 сезон

iTunes

1 сезон

RePack

30

Новинка

ВАЖНО

ИГРА 18+

pack

RePack

MK11
pack

Забери бонус

RePack

jed

!!Акция!!

Alien_Rage

RePack

fifa19

RePack

Assassins Creed: Odyssey

RePack

NEED FOR SPEED™ PAYBACK

4 сезон

9 сезон

Бесстыжие 9 сезон

Все сериалы

все сериалы на PB.wtf

RePack

FAR CRY 5
  

Беспринципные / Сезон: 1 / Серии: 1-8 из 8 (Роман Прыгунов) [2020, Комедия, WEBRip 720p, (Версия 18+)] pb.wtf

Беспринципные через торрент pb.wtf

Раздают: 9 [ 524 KB/s ] Качают: 4 [ 0 KB/s ]
Размер: 10.02 GB | Добавлен: 2 д. 6 ч. назад | Торрент скачан:32 раза
Скачать  

23-10-2020 19:16 Беспринципные Скачать торрент  

Беспринципные
Год выпуска: 2020
Страна: Россия
Студия: Медиаслово
Жанр: Комедия
Продолжительность: ~ 00:50:00 серия
Субтитры: Русские

Режиссер: Роман Прыгунов

rating

В ролях: Павел Деревянко, Ингеборга Дапкунайте, Максим Виторган, Оксана Акиньшина, Николай Фоменко, Аглая Тарасова, Павел Табаков, Юрий Колокольников, Надежда Михалкова, Кристина Бабушкина, Мария Шалаева, Дмитрий Муляр, Александр Семёнов, Юрий Батурин

Описание: Добро пожаловать на Патриаршие. Смешные и волнующие подробности личной жизни богатых москвичей, которые, как и все, попадают в неловкие ситуации. Правда, ситуации у них не самые обычные... Жена чувствует себя виноватой, познакомившись с любовницей мужа. Муж прикрывается выдуманной дочерью друга. А друг толкает помощника на измену, потому что так хочет жена. И это только начало. Одним словом, неприличные истории о приличных, казалось бы, людях.

Качество: WEBRip 720p
Формат: MKV

Видео: MPEG-4 AVC, 1280х544 (2,35:1), 25 fps, AVC MPEG-4 (x264), High@L4.1 ~ 3500 kbps avg, 0.200 bit/pixel
Аудио 1: 48.0 kHz, AC3 Dolby Digital, 2/0 (L,R) ch, ~ 192 kbps
Аудио 2: 48.0 kHz, AC3 Dolby Digital, 2/0 (L,R) ch, ~ 192 kbps|18+|

***Внимание! В дорожке #2 присутствует ненормативная лексика!
скриншот  скриншот  скриншот  скриншот  

Общее
Уникальный идентификатор : 174277290291632559860995853692410147976 (0x831C95CFA9AA71A887B9042F53AE3488)
Полное имя : C:\Besprincipnye.S01.2020.WEB-DLRip.(720p).ExKinoRay\Besprincipnye.S01.E01.2020.WEB-DLRip.(720p).WEB-DLRip.ExKinoRay.mkv
Формат : Matroska
Версия формата : Version 4
Размер файла : 1,25 Гбайт
Продолжительность : 46 м. 11 с.
Общий поток : 3887 Кбит/сек
Дата кодирования : UTC 2020-10-15 17:10:51
Программа кодирования : mkvmerge v6.9.1 ('Blue Panther') 64bit built on Apr 18 2014 18:23:38
Библиотека кодирования : libebml v1.3.0 + libmatroska v1.4.1

Видео
Идентификатор : 1
Формат : AVC
Формат/Информация : Advanced Video Codec
Профиль формата : High@L4.1
Настройки формата : CABAC / 9 Ref Frames
Параметр CABAC формата : Да
Параметр RefFrames формата : 9 кадров
Идентификатор кодека : V_MPEG4/ISO/AVC
Продолжительность : 46 м. 11 с.
Битрейт : 3500 Кбит/сек
Ширина : 1280 пикселей
Высота : 544 пикселя
Соотношение сторон : 2,35:1
Режим частоты кадров : Постоянный
Частота кадров : 25,000 кадров/сек
Цветовое пространство : YUV
Субдискретизация насыщенности : 4:2:0
Битовая глубина : 8 бит
Тип развёртки : Прогрессивная
Бит/(Пиксели*Кадры) : 0.201
Размер потока : 1,11 Гбайт (88%)
Библиотека кодирования : x264 core 146 r2538 121396c
Настройки программы : cabac=1 / ref=9 / deblock=1:-3:-3 / analyse=0x3:0x113 / me=umh / subme=11 / psy=1 / psy_rd=1.00:0.20 / mixed_ref=1 / me_range=32 / chroma_me=1 / trellis=2 / 8x8dct=1 / cqm=0 / deadzone=21,11 / fast_pskip=1 / chroma_qp_offset=-3 / threads=24 / lookahead_threads=8 / sliced_threads=0 / nr=0 / decimate=0 / interlaced=0 / bluray_compat=0 / constrained_intra=0 / bframes=10 / b_pyramid=2 / b_adapt=2 / b_bias=0 / direct=3 / weightb=1 / open_gop=0 / weightp=2 / keyint=250 / keyint_min=25 / scenecut=40 / intra_refresh=0 / rc_lookahead=60 / rc=2pass / mbtree=1 / bitrate=3500 / ratetol=1.0 / qcomp=0.60 / qpmin=0 / qpmax=69 / qpstep=4 / cplxblur=20.0 / qblur=0.5 / vbv_maxrate=14000 / vbv_bufsize=14000 / nal_hrd=none / filler=0 / ip_ratio=1.40 / aq=3:1.40
Default : Да
Forced : Нет
Цветовой диапазон : Limited
Основные цвета : BT.709
Характеристики трансфера : BT.709
Коэффициенты матрицы : BT.709

Аудио #1
Идентификатор : 2
Формат : AC-3
Формат/Информация : Audio Coding 3
Коммерческое название : Dolby Digital
Идентификатор кодека : A_AC3
Продолжительность : 46 м. 11 с.
Вид битрейта : Постоянный
Битрейт : 192 Кбит/сек
Каналы : 2 канала
ChannelLayout : L R
Частота : 48,0 КГц
Частота кадров : 31,250 кадров/сек (1536 SPF)
Битовая глубина : 16 бит
Метод сжатия : С потерями
Размер потока : 63,4 Мбайт (5%)
Заголовок : Cenzura
Язык : Russian
ServiceKind/String : Complete Main
Default : Да
Forced : Нет

Аудио #2
Идентификатор : 3
Формат : AC-3
Формат/Информация : Audio Coding 3
Коммерческое название : Dolby Digital
Идентификатор кодека : A_AC3
Продолжительность : 46 м. 11 с.
Вид битрейта : Постоянный
Битрейт : 192 Кбит/сек
Каналы : 2 канала
ChannelLayout : L R
Частота : 48,0 КГц
Частота кадров : 31,250 кадров/сек (1536 SPF)
Битовая глубина : 16 бит
Метод сжатия : С потерями
Размер потока : 63,4 Мбайт (5%)
Заголовок : Bez cenzury
ServiceKind/String : Complete Main
Default : Нет
Forced : Нет

Текст
Идентификатор : 4
Формат : UTF-8
Идентификатор кодека : S_TEXT/UTF8
Идентификатор кодека/Информация : UTF-8 Plain Text
Заголовок : Saby
Default : Да
Forced : Нет

Внимание! Раздача ведётся путём добавления новых серий; при каждом добавлении создаётся новый торрент.
Чтобы начать докачку новой серии, пользователям необходимо сделать следующее:
1. Остановить скачивание;
2. Удалить старый торрент у себя из клиента (старые серии удалять не надо);
3. Скачать новый торрент и запустить его у себя в клиенте вместо старого, при этом указать клиенту путь в старую папку куда и должно происходить скачивание новых серий. Ваш клиент при этом должен произвести хеширование (проверку) старой папки и будет докачивать только те серии, которых у вас ещё нет. Старые серии при этом не удаляются, а продолжают раздаваться! Eсли вы уже удалили старые серии, то предотвратить повторную закачку старых серий можно, отжав галочку в соответствующих местах при запуске нового торрента.

pb.wtf



Скачать Беспринципные через торрент https://i114.fastpic.ru/big/2020/1015/cf/113cb99159c39833e44cc3b4c523dbcf.jpg Скачать фильм Беспринципные через торрент бесплантно в хорошем качестве Описание: Добро пожаловать на Патриаршие. Смешные и волнующие подробности личной жизни богатых москвичей, которые, как и все, попадают в ... 10 10 9
Торрент: Зарегистрирован [2020-11-27 19:15] · скачан: 32 раз
Статус: √ проверено
Размер: 10.02 GB
Как cкачать? Как скачать Беспринципные через торрент | qTorrent

% Раздел Тема Автор DL S | L
Наши сериалы [ 4.63 GB ] Беспринципные / Сезон: 1 / Серии: 1-8 из 8 [2020 WEBRip-AVC ] bober100 Скачать
8 | 2
Наши сериалы [ 13.18 GB ] Беспринципные / Сезон: 1 / Серии: 1-8 из 8 [2020 WEBRip 1080p ] bober100 Скачать
16 | 7
Наши сериалы [ 4.65 GB ] Беспринципные / Сезон: 1 / Серии: 1-8 из 8 [2020 WEBRip ] bober100 Скачать
16 | 4


Последний раз редактировалось: bober100 (2020-11-27 19:15), всего редактировалось 3 раз(а)

28-11-2019 20:33  

Отключить всю рекламу на сайте

06-11-2020 06:26 Беспринципные Скачать торрент  

Долго расскачивается этот сериал. Первые две серии какую то тупую рнуху смотришь а дальше тоже рнуху но прикольнуюpb.wtf



    Дорогой пользователь! Огромная просьба, поблагодарите релизера, оцените раздачу и оставьте свои комментарий, если Вы скачали Беспринципные через торрент бесплатно! Внесите свою лепту в развитие PiratBit!
    Комментировать посты могут только пользователи прошедшие не сложную регистрацию
    Показать сообщения:    

    Беспринципные через торрент
    Скачать бесплатно Беспринципные
    Беспринципные скачать торрент
    Беспринципные смотреть онлайн
    Cкачать фильм Беспринципные бесплатно
    Беспринципные скачать торрент в хорошем качестве
    Беспринципные смотреть онлайн бесплатно в хорошем качестве


    Вы не можете начинать темы
    Вы не можете отвечать на сообщения
    Вы не можете редактировать свои сообщения
    Вы не можете удалять свои сообщения
    Вы не можете голосовать в опросах
    Вы не можете прикреплять файлы к сообщениям
    Вы можете скачивать файлы