Ссылка на приватное зеркало нашего сайта всего за 1$. Внимание количество ограничено!!!

2 сезон

iTunes

1 сезон

1

2 сезон

2 сезон

iTunes

1 сезон

RePack

30

Ultimate

ВАЖНО

ИГРА 18+

pack

RePack

MK11
pack

Забери бонус

RePack

jed

!!Акция!!

Alien_Rage

RePack

fifa19

RePack

Assassins Creed: Odyssey

RePack

NEED FOR SPEED™ PAYBACK

4 сезон

9 сезон

Бесстыжие 9 сезон

Все сериалы

все сериалы на PB.wtf

RePack

FAR CRY 5
  

Падение / Falling (Вигго Мортенсен) [2020, Драма, WEB-DL 1080p] DUB [iTunes] pb.wtf

Падение через торрент pb.wtf

Раздают: 6 [ 0.2 KB/s ]
Размер: 4.04 GB | Добавлен: 1 мес. назад | Торрент скачан:79 раз
Скачать  

24-10-2020 03:55 Падение Скачать торрент  

Падение | Falling
Год выпуска: 2020
Страна: США
Студия: Perceval Pictures, Baral Waley Productions, Scythia Films
Жанр: Драма
Продолжительность: 01:47:45
Перевод: Дублированный | iTunes
Субтитры: отсутствуют

Режиссер: Вигго Мортенсен

rating

В ролях: Вигго Мортенсен, Лэнс Хенриксен, Сверрир Гуднасон, Лора Линни, Ханна Гросс, Терри Чен, Дэвид Кроненберг, Брекен Барнс, Пьерс Бейвут, Грэйди Маккензи

Описание: Стареющий отец не справляется с одинокой жизнью на ферме и переезжает в Лос-Анджелес в семью сына. Смогут ли отец и сын преодолеть боль, которую они всю жизнь причиняли себе и друг другу, и подняться над конфликтом двух точек зрения на мир?

Качество: WEB-DL 1080p
Формат: MKV

Видео: MPEG-4 AVC, 1920x804, 4604 Кbit/s, 25.000 fps
Аудио #01: 48 kHz, AC3, 5.1, 384 Kbps | iTunes | RUS |
Аудио #02: 48 kHz, AC3, 2.0, 384 Kbps | Оригинал | ENG |
скриншот  скриншот  скриншот  скриншот  скриншот  

General
Unique ID: 157374709885754242329058156646462156668 (0x76654441970536D213D50CB97A786F7C)
Complete name: D:Video111Falling.2019.WEB-DL.1080p.seleZen.mkv
Format: Matroska
Format version: Version 4
File size: 4.04 GiB
Duration: 1 h 47 min
Overall bit rate: 5 374 kb/s
Movie name: Falling 2019 from селезень
Encoded date: UTC 2020-10-23 20:12:30
Writing application: mkvmerge v40.0.0 ('Old Town Road + Pony') 64-bit
Writing library: libebml v1.3.9 + libmatroska v1.5.2
Cover: Yes
Attachments: cover.jpg

Video
ID: 1
Format: AVC
Format/Info: Advanced Video Codec
Format profile: High@L4
Format settings: CABAC / 5 Ref Frames
Format settings, CABAC: Yes
Format settings, Reference: 5 frames
Codec ID: V_MPEG4/ISO/AVC
Duration: 1 h 47 min
Bit rate: 4 604 kb/s
Width: 1 920 pixels
Height: 804 pixels
Display aspect ratio: 2.40:1
Frame rate mode: Constant
Frame rate: 25.000 FPS
Color space: YUV
Chroma subsampling: 4:2:0
Bit depth: 8 bits
Scan type: Progressive
Bits/(Pixel*Frame): 0.119
Stream size: 3.46 GiB (86%)
Language: English
Default: Yes
Forced: No
Color range: Limited
Color primaries: BT.709
Transfer characteristics: BT.709
Matrix coefficients: BT.709

Audio #1
ID: 2
Format: AC-3
Format/Info: Audio Coding 3
Commercial name: Dolby Digital
Codec ID: A_AC3
Duration: 1 h 47 min
Bit rate mode: Constant
Bit rate: 384 kb/s
Channel(s): 6 channels
Channel layout: L R C LFE Ls Rs
Sampling rate: 48.0 kHz
Frame rate: 31.250 FPS (1536 SPF)
Compression mode: Lossy
Stream size: 296 MiB (7%)
Title: iTunes
Language: Russian
Service kind: Complete Main
Default: Yes
Forced: Yes

Audio #2
ID: 3
Format: AC-3
Format/Info: Audio Coding 3
Commercial name: Dolby Digital
Codec ID: A_AC3
Duration: 1 h 47 min
Bit rate mode: Constant
Bit rate: 384 kb/s
Channel(s): 2 channels
Channel layout: L R
Sampling rate: 44.1 kHz
Frame rate: 28.711 FPS (1536 SPF)
Compression mode: Lossy
Delay relative to video: 20 ms
Stream size: 296 MiB (7%)
Title: Original
Language: English
Service kind: Complete Main
Default: No
Forced: No

Menu
00:00:00.000: en:Глава 1
00:02:49.520: en:Глава 2
00:10:20.880: en:Глава 3
00:17:39.920: en:Глава 4
00:22:40.959: en:Глава 5
00:27:40.439: en:Глава 6
00:35:00.038: en:Глава 7
00:43:30.077: en:Глава 8
00:53:29.716: en:Глава 9
00:59:46.236: en:Глава 10
01:07:17.156: en:Глава 11
01:13:27.275: en:Глава 12
01:18:22.594: en:Глава 13
01:23:28.913: en:Глава 14
01:31:35.873: en:Глава 15
01:37:10.393: en:Глава 16

pb.wtf



Скачать Падение через торрент https://i114.fastpic.ru/big/2020/1024/b6/48375ea390368e83560ec7d4cef86bb6.jpg Скачать фильм Падение через торрент бесплантно в хорошем качестве Описание: Стареющий отец не справляется с одинокой жизнью на ферме и переезжает в Лос-Анджелес в семью сына. Смогут ли отец и сын ... 8.5 10 6
Торрент: Зарегистрирован [2020-10-24 03:55] · скачан: 79 раз
Статус: √ проверено
Размер: 4.04 GB
Как cкачать? Как скачать Падение через торрент | qTorrent

% Раздел Тема Автор DL S | L
Фильмы 2019-2020 [DVDrip, WEB-DLRip, HDrip] (DUB, MVO) [ 746 MB ] Падение / Falling [2020 WEB-DLRip] bober100 Скачать
3 | 0
Фильмы 2019-2020 [DVDrip, WEB-DLRip, HDrip] (DUB, MVO) [ 1.46 GB ] Падение / Falling [2020 WEB-DLRip] bober100 Скачать
4 | 0
Порно фильмы с сюжетом [ 1.69 GB ] Грехопадение / Falling From Grace [2020 All Sex Feature WEB-DL] bashai5 Скачать
2 | 0
T Фильмы 2014 [DVDrip, WEB-DLRip, HDrip] [ 1.47 GB ] Падение / The Falling [2014 HDRip многоголосый [официальный звук] Ворон Скачать
1 | 0
T Фильмы [HD 720p, 1080p] (Хороший звук DUB, MVO) [ 7.78 GB ] Падение / The Falling [2014 BDRip 1080p многоголосый [официальный звук] Ворон Скачать
1 | 0
Фильмы 2014 (Звук TS, Cam, VO, DVO) [ 1.37 GB ] Падение / The Falling [2014 HDRip [2D] Ворон Скачать
1 | 0
Фильмы 2011 [ 1.46 GB ] Падение Джека / Джек замолчал / Jack Falls [2011 BDRip] VO slaventi-69 Скачать
1 | 0

28-11-2019 20:33  

Отключить всю рекламу на сайте

04-11-2020 21:01 Падение Скачать торрент  

Описание неполное, по сюжету
старик отец приезжает к взрослому сыну гею ... дальше типа флешбеки про детство сына и прочее. Удалил на середине фильма
pb.wtf



    Дорогой пользователь! Огромная просьба, поблагодарите релизера, оцените раздачу и оставьте свои комментарий, если Вы скачали Падение через торрент бесплатно! Внесите свою лепту в развитие PiratBit!
    Комментировать посты могут только пользователи прошедшие не сложную регистрацию
    Показать сообщения:    

    Падение через торрент
    Скачать бесплатно Падение
    Падение скачать торрент
    Падение смотреть онлайн
    Cкачать фильм Падение бесплатно
    Падение скачать торрент в хорошем качестве
    Падение смотреть онлайн бесплатно в хорошем качестве


    Вы не можете начинать темы
    Вы не можете отвечать на сообщения
    Вы не можете редактировать свои сообщения
    Вы не можете удалять свои сообщения
    Вы не можете голосовать в опросах
    Вы не можете прикреплять файлы к сообщениям
    Вы можете скачивать файлы