Ссылка на приватное зеркало нашего сайта всего за 1$. Внимание количество ограничено!!!

2 сезон

iTunes

1 сезон

1

2 сезон

2 сезон

iTunes

1 сезон

RePack

30

Ultimate

ВАЖНО

ИГРА 18+

pack

RePack

MK11
pack

Забери бонус

RePack

jed

!!Акция!!

Alien_Rage

RePack

fifa19

RePack

Assassins Creed: Odyssey

RePack

NEED FOR SPEED™ PAYBACK

4 сезон

9 сезон

Бесстыжие 9 сезон

Все сериалы

все сериалы на PB.wtf

RePack

FAR CRY 5
  

Ребекка / Rebecca (Бен Уитли) [2020, Триллер, драма, мелодрама, детектив, WEB-DL 1080p] 2xMVO [Jaskier, HDRezka Studio] pb.wtf

Ребекка через торрент pb.wtf

Раздают: 2 [ 0 KB/s ]
Размер: 5.19 GB | Добавлен: 30 д. назад | Торрент скачан:71 раз
Скачать  

24-10-2020 04:04 Ребекка Скачать торрент  

Ребекка | Rebecca
Год выпуска: 2020
Страна: Великобритания
Студия: NetFlix, Working Title Films
Жанр: Триллер, драма, мелодрама, детектив
Продолжительность: 02:03:02
Перевод:
Профессиональный (многоголосый) | Jaskier
Профессиональный (многоголосый) | HDRezka Studio
Субтитры: Русские (Forced, Full) , английские, французские, немецкие, китайские

Режиссер: Бен Уитли

rating

В ролях: Лили Джеймс, Арми Хаммер, Кристин Скотт Томас, Жак Буаниш, Мари Коллинз, Marie Collins, Энн Дауд, Жан Делл, Софи Пайан, Пиппа Уинслоу

Описание: Сирота, работающая компаньонкой у немолодой состоятельной дамы, в шикарном отеле Монте-Карло знакомится с недавно овдовевшим аристократом Максимом де Уинтером. Он сильно переживает смерть жены Ребекки и избегает разговоров на эту тему. У молодых людей завязывается роман, вскоре они женятся, и Максим привозит новую жену в фамильное поместье Мэндерли. Но там молодую миссис де Уинтер буквально во всём - от обстановки и одежды до разговоров прислуги и новообретенных родственников - начинает подавлять присутствие Ребекки.

Качество: WEB-DL 1080p
Формат: MKV

Видео: 1920x1080 (16:9), 24 fps, MPEG-4 AVC ~ 4420 Kbps avg, 0.089 bit/pixel
Аудио#1: AC3, 48 kHz, 6 ch, ~448.00 kbps avg | русский | Jaskier
Аудио#2: AC3, 48 kHz, 6 ch, ~448.00 kbps avg | русский | HDRezka Studio
Аудио#3: AC3, 48 kHz, 6 ch, ~640.00 kbps avg | английский | Оригинал
скриншот  скриншот  скриншот  скриншот  скриншот  

General
Unique ID : 68085708650239962991181454858702695764 (0x3338D49C229477B9EC694E287C1A2D54)
Complete name : S:\Rebecca.2020.NF.WEB-DL.1080p.mkv
Format : Matroska
Format version : Version 4
File size : 5.19 GiB
Duration : 2 h 3 min
Overall bit rate mode : Variable
Overall bit rate : 6 036 kb/s
Encoded date : UTC 2020-10-27 02:49:04
Writing application : mkvmerge v20.0.0 ('I Am The Sun') 64-bit
Writing library : libebml v1.3.5 + libmatroska v1.4.8

Video
ID : 1
Format : AVC
Format/Info : Advanced Video Codec
Format profile : Main@L4
Format settings : CABAC / 3 Ref Frames
Format settings, CABAC : Yes
Format settings, Reference frames : 3 frames
Codec ID : V_MPEG4/ISO/AVC
Duration : 2 h 3 min
Bit rate mode : Variable
Bit rate : 4 420 kb/s
Maximum bit rate : 6 630 kb/s
Width : 1 920 pixels
Height : 1 080 pixels
Display aspect ratio : 16:9
Frame rate mode : Constant
Frame rate : 24.000 FPS
Color space : YUV
Chroma subsampling : 4:2:0
Bit depth : 8 bits
Scan type : Progressive
Bits/(Pixel*Frame) : 0.089
Stream size : 3.76 GiB (72%)
Writing library : x264 core 148 r2722 1b0121b
Encoding settings : cabac=1 / ref=3 / deblock=1:0:0 / analyse=0x1:0x111 / me=umh / subme=10 / psy=1 / psy_rd=1.00:0.00 / mixed_ref=1 / me_range=24 / chroma_me=1 / trellis=2 / 8x8dct=0 / cqm=0 / deadzone=21,11 / fast_pskip=1 / chroma_qp_offset=-2 / threads=8 / lookahead_threads=1 / sliced_threads=0 / nr=0 / decimate=1 / interlaced=0 / bluray_compat=0 / stitchable=1 / constrained_intra=0 / bframes=2 / b_pyramid=0 / b_adapt=2 / b_bias=0 / direct=3 / weightb=1 / open_gop=0 / weightp=2 / keyint=250 / keyint_min=24 / scenecut=0 / intra_refresh=0 / rc_lookahead=48 / rc=2pass / mbtree=1 / bitrate=4420 / ratetol=1.0 / qcomp=0.50 / qpmin=6 / qpmax=51 / qpstep=4 / cplxblur=20.0 / qblur=0.5 / vbv_maxrate=6630 / vbv_bufsize=8840 / nal_hrd=vbr / filler=0 / ip_ratio=1.40 / aq=1:1.00
Language : English
Default : Yes
Forced : No

Audio #1
ID : 2
Format : AC-3
Format/Info : Audio Coding 3
Commercial name : Dolby Digital
Codec ID : A_AC3
Duration : 2 h 3 min
Bit rate mode : Constant
Bit rate : 448 kb/s
Channel(s) : 6 channels
Channel layout : L R C LFE Ls Rs
Sampling rate : 48.0 kHz
Frame rate : 31.250 FPS (1536 SPF)
Compression mode : Lossy
Stream size : 394 MiB (7%)
Title : MVO Jaskier
Language : Russian
Service kind : Complete Main
Default : Yes
Forced : No

Audio #2
ID : 3
Format : AC-3
Format/Info : Audio Coding 3
Commercial name : Dolby Digital
Codec ID : A_AC3
Duration : 2 h 3 min
Bit rate mode : Constant
Bit rate : 448 kb/s
Channel(s) : 6 channels
Channel layout : L R C LFE Ls Rs
Sampling rate : 48.0 kHz
Frame rate : 31.250 FPS (1536 SPF)
Compression mode : Lossy
Stream size : 394 MiB (7%)
Title : MVO HDRezka Studio
Language : Russian
Service kind : Complete Main
Default : No
Forced : No

Audio #3
ID : 4
Format : E-AC-3 JOC
Format/Info : Enhanced AC-3 with Joint Object Coding
Commercial name : Dolby Digital Plus with Dolby Atmos
Codec ID : A_EAC3
Duration : 2 h 3 min
Bit rate mode : Constant
Bit rate : 768 kb/s
Channel(s) : 6 channels
Channel layout : L R C LFE Ls Rs
Sampling rate : 48.0 kHz
Frame rate : 31.250 FPS (1536 SPF)
Compression mode : Lossy
Stream size : 676 MiB (13%)
Language : English
Service kind : Complete Main
Default : No
Forced : No
Complexity index : 16
Number of dynamic objects : 15
Bed channel count : 1 channel
Bed channel configuration : LFE

Text #1
ID : 5
Format : UTF-8
Codec ID : S_TEXT/UTF8
Codec ID/Info : UTF-8 Plain Text
Duration : 1 h 53 min
Bit rate : 2 b/s
Count of elements : 55
Stream size : 2.11 KiB (0%)
Title : forced
Language : Russian
Default : Yes
Forced : No

Text #2
ID : 6
Format : UTF-8
Codec ID : S_TEXT/UTF8
Codec ID/Info : UTF-8 Plain Text
Duration : 2 h 1 min
Bit rate : 75 b/s
Count of elements : 1272
Stream size : 67.4 KiB (0%)
Title : Russian
Language : Russian
Default : No
Forced : No

Text #3
ID : 7
Format : UTF-8
Codec ID : S_TEXT/UTF8
Codec ID/Info : UTF-8 Plain Text
Duration : 1 h 53 min
Bit rate : 54 b/s
Count of elements : 1290
Stream size : 45.1 KiB (0%)
Language : English
Default : No
Forced : No

Text #4
ID : 8
Format : UTF-8
Codec ID : S_TEXT/UTF8
Codec ID/Info : UTF-8 Plain Text
Duration : 2 h 1 min
Bit rate : 45 b/s
Count of elements : 1253
Stream size : 40.2 KiB (0%)
Title : French
Language : French
Default : No
Forced : No

Text #5
ID : 9
Format : UTF-8
Codec ID : S_TEXT/UTF8
Codec ID/Info : UTF-8 Plain Text
Duration : 2 h 1 min
Bit rate : 41 b/s
Count of elements : 1268
Stream size : 37.1 KiB (0%)
Title : German
Language : German
Default : No
Forced : No

Text #6
ID : 10
Format : UTF-8
Codec ID : S_TEXT/UTF8
Codec ID/Info : UTF-8 Plain Text
Duration : 2 h 1 min
Bit rate : 50 b/s
Count of elements : 1265
Stream size : 45.2 KiB (0%)
Title : Chinese Simplified
Language : Chinese
Default : No
Forced : No

pb.wtf



Скачать Ребекка через торрент https://i114.fastpic.ru/big/2020/1024/5f/0604ab677d8f2e6ae28416cd584d7d5f.jpg Скачать фильм Ребекка через торрент бесплантно в хорошем качестве Описание: Сирота, работающая компаньонкой у немолодой состоятельной дамы, в шикарном отеле Монте-Карло знакомится с недавно овдовевшим ... 10 10 3
Торрент: Зарегистрирован [2020-10-27 10:14] · скачан: 71 раз
Статус: √ проверено
Размер: 5.19 GB
Как cкачать? Как скачать Ребекка через торрент | qTorrent

% Раздел Тема Автор DL S | L
Фильмы 2019-2020 [DVDrip, WEB-DLRip, HDrip] (DUB, MVO) [ 1.43 GB ] Ребекка / Rebecca [2020 WEB-DLRip-AVC] [MVO] [HDRezka Studio] | от Mediabit Lithuania Скачать
3 | 0
Фильмы 2019-2020 [DVDrip, WEB-DLRip, HDrip] (DUB, MVO) [ 2.18 GB ] Ребекка / Rebecca [2020 WEB-DLRip] MVO [HDRezka Studio] bober100 Скачать
3 | 0
Зарубежные сериалы [ 14.52 GB ] Ребекка Мартинссон / Rebecka Martinsson / Сезон: 1 / Серии: 1-8 из 8 [2017 WEB-DL 1080p] MVO [SDI Media] bober100 Скачать
1 | 0
Зарубежные сериалы [ 4.18 GB ] Ребекка Мартинссон / Rebecka Martinsson / Сезон: 1 / Серии: 1-8 из 8 [2017 WEB-DLRip] MVO [SDI Media] bober100 Скачать
1 | 0
Зарубежные сериалы [ 6.64 GB ] Настоящие О’Нилы / The Real O'Neals / Сезон: 2 / Серии 1-16 из 16 [2016 WEBRip-AVC] MVO [BaibaKo] GEKADOL Скачать
1 | 0
Зарубежные сериалы [ 5.41 GB ] Настоящие О’Нилы / The Real O'Neals / Сезон: 1 / Серии 1-13 из 13 [2016 WEBRip-AVC] MVO [BaibaKo] GEKADOL Скачать
1 | 0
HD ролики [ 1.88 GB ] Оливия О'лавли Ребекка Линарес из глубины латинских Щеки 2 / Olivia O'Lovely Rebeca Linares from Deep In Latin Cheeks 2 [2008 WEB-DL] DJASFUL Скачать
1 | 0


Последний раз редактировалось: bober100 (2020-10-27 10:17), всего редактировалось 3 раз(а)

28-11-2019 20:33  

Отключить всю рекламу на сайте

24-10-2020 10:01 Ребекка Скачать торрент  

нормальный фильм.интригу держит.pb.wtf



    Дорогой пользователь! Огромная просьба, поблагодарите релизера, оцените раздачу и оставьте свои комментарий, если Вы скачали Ребекка через торрент бесплатно! Внесите свою лепту в развитие PiratBit!
    Комментировать посты могут только пользователи прошедшие не сложную регистрацию
    Показать сообщения:    

    Ребекка через торрент
    Скачать бесплатно Ребекка
    Ребекка скачать торрент
    Ребекка смотреть онлайн
    Cкачать фильм Ребекка бесплатно
    Ребекка скачать торрент в хорошем качестве
    Ребекка смотреть онлайн бесплатно в хорошем качестве


    Вы не можете начинать темы
    Вы не можете отвечать на сообщения
    Вы не можете редактировать свои сообщения
    Вы не можете удалять свои сообщения
    Вы не можете голосовать в опросах
    Вы не можете прикреплять файлы к сообщениям
    Вы можете скачивать файлы