Доктор Стрэндж

Лицензия

Добыча

Дубляж

Дом дракона

1 сезон

Тор

Дубляж

В эфире

Дубляж

Там, где раки поют

MVO

Властелин колец

1 сезон

GLOBAL

pack

Рекомендуем

30

Пиратка

ВАЖНО

ВАЖНО

Ghostwire

Пиратка

jed

RePack

nioh2

RePack

RDR2

RePack

NEED FOR SPEED™ PAYBACK

RePack

скачать торрент

Кинопоиск HD

Острые козырьки 6 сезон

6 сезон

FAR CRY 6

RePack

скачать торрент

Лицензия

скачать торрент

MVO

1

1 сезон

скачать торрент

1 сезон

скачать торрент

Лицензия

  

Огненное детство (Юрий Швырев) [1976 г., приключения, семейный, детский, SATRip-AVC]

Огненное детство через торрент pb.wtf

Размер: 1.57 GB | Добавлен: 2 года 1 мес. назад | Торрент скачан:13 раз
Смотреть онлайн | Скачать   

25-10-2020 13:20 Огненное детство Скачать торрент  

Огненное детство

Год выпуска: 1976 (Премьера февраль 1977)
Страна: СССР | киностудия им. Горького
Жанр: приключения, семейный, детский
Продолжительность: 01:03:15
Перевод: не требуется

Режиссер: Юрий Швырев

В ролях: Петя Горкин, Алеша Бакинов, Сережа Соколов, Саша Ребеко, Боря Антоненко, Алеша Абрамов, Валя Басков, Витя Кузнецов, Юрий Кузьменков, Геннадий Юхтин, Николай Юдин, Евгений Красавцев

Описание: По повести Г. Мирошниченко «Юнармия». 1919 год. Маленькая железнодорожная станция на Кубани захвачена белыми, но раненому комиссару Субботину чудом удается спастись. Мальчишки организовывают юнармию и просят комиссара Субботина стать их наставником…

rating

Файл
Формат: MKV
Кодек: x264
Качество: SATRip-AVC (DVB)
Видео: MPEG-4 AVC, [email protected], 25.000 fps, 3348 kbps, 0.339 bit/pixel
Аудио: Русский, AC3, 2 chnls, 192 kbps | Оригинал
x264 [info]: frame I:469 Avg QP:16.05 size: 53776
x264 [info]: frame P:23897 Avg QP:18.13 size: 30949
x264 [info]: frame B:70519 Avg QP:19.60 size: 11678
x264 [info]: consecutive B-frames: 2.8% 4.8% 12.2% 29.5% 20.4% 26.7% 2.6% 0.9% 0.1% 0.1% 0.0%
Format : Matroska
Format version : Version 4
File size : 1.57 GiB
Duration : 1 h 3 min
Overall bit rate mode : Variable
Overall bit rate : 3 544 kb/s
Movie name : Огненное детство (1976) - Rip by -{am}-
Encoded date : UTC 2020-10-23 23:51:05
Writing application : mkvmerge v7.2.0 ('On Every Street') 32bit built on Sep 13 2014 15:42:11
Writing library : libebml v1.3.0 + libmatroska v1.4.1
Attachments : poster.png

Video
ID : 1
Format : AVC
Format/Info : Advanced Video Codec
Format profile : [email protected]
Format settings : CABAC / 16 Ref Frames
Format settings, CABAC : Yes
Format settings, Reference : 16 frames
Codec ID : V_MPEG4/ISO/AVC
Duration : 1 h 3 min
Bit rate mode : Variable
Bit rate : 3 348 kb/s
Maximum bit rate : 62.5 Mb/s
Width : 696 pixels
Height : 568 pixels
Display aspect ratio : 4:3
Original display aspect rat : 4:3
Frame rate mode : Constant
Frame rate : 25.000 FPS
Color space : YUV
Chroma subsampling : 4:2:0
Bit depth : 8 bits
Scan type : Progressive
Bits/(Pixel*Frame) : 0.339
Stream size : 1.48 GiB (94%)
Title : Ognennoe.detstvo.1976.{am}.742.Rus
Writing library : x264 core 161 r3018+53 18a1d6c t_mod_New [(8 & 10)[email protected] X86_64]
Encoding settings : cabac=1 / ref=16 / deblock=1:-3:-2 / analyse=0x3:0x113 / me=umh / subme=11 / psy=1 / fade_compensate=0.00 / psy_rd=1.00:0.20 / mixed_ref=1 / me_range=64 / chroma_me=1 / trellis=2 / 8x8dct=1 / cqm=2 / deadzone=21,11 / fast_pskip=0 / chroma_qp_offset=-5 / threads=18 / lookahead_threads=4 / sliced_threads=0 / nr=0 / decimate=0 / interlaced=0 / bluray_compat=0 / constrained_intra=0 / fgo=0 / bframes=10 / b_pyramid=2 / b_adapt=2 / b_bias=0 / direct=3 / weightb=1 / open_gop=0 / weightp=2 / keyint=250 / keyint_min=25 / scenecut=40 / intra_refresh=0 / rc_lookahead=60 / rc=crf / mbtree=0 / crf=17.5000 / qcomp=0.60 / qpmin=0:0:0 / qpmax=30:30:30 / qpstep=4 / vbv_maxrate=62500 / vbv_bufsize=78125 / crf_max=27.6 / nal_hrd=vbr / filler=0 / ip_ratio=1.40 / pb_ratio=1.30 / aq=3:1.00 / aq-sensitivity=10.00 / aq-factor=1.00:1.00:1.00 / aq2=0 / aq3=0
Language : Russian
Default : Yes
Forced : No
Color range : Limited
Color primaries : BT.601 PAL
Transfer characteristics : BT.470 System B/G
Matrix coefficients : BT.470 System B/G

Audio
ID : 2
Format : AC-3
Format/Info : Audio Coding 3
Commercial name : Dolby Digital
Codec ID : A_AC3
Duration : 1 h 3 min
Bit rate mode : Constant
Bit rate : 192 kb/s
Channel(s) : 2 channels
Channel layout : L R
Sampling rate : 48.0 kHz
Frame rate : 31.250 FPS (1536 SPF)
Compression mode : Lossy
Stream size : 86.9 MiB (5%)
Title : Original
Language : Russian
Service kind : Complete Main
Default : Yes
Forced : No
скриншот  скриншот  скриншот  скриншот  

скриншот  скриншот  скриншот  скриншот  

скриншот  скриншот  скриншот  скриншот  

скриншот  скриншот  скриншот  скриншот  



Скачать Огненное детство через торрент https://img11.lostpic.net/2020/10/25/1fa0352c8c289efe1089d470fe887e0a.th.png Скачать, смотреть онлайн Огненное детство бесплантно в хорошем качестве Описание: По повести Г. Мирошниченко «Юнармия». 1919 год. Маленькая железнодорожная станция на Кубани захвачена белыми, но раненому ... 10 10 1
Торрент: Зарегистрирован [2020-10-25 13:20] · скачан: 13 раз
Статус: √ проверено
Размер: 1.57 GB
Как cкачать? Как скачать Огненное детство через торрент | UTorrent

28-11-2019 20:33  


Отключить вcю реклaмy на сайте, в т.ч. и в плеере онлайн просмотра!

    Дорогой пользователь! Огромная просьба, поблагодарите релизера, оцените раздачу и оставьте свои комментарий, если Вы скачали Огненное детство через торрент бесплатно!!
    Комментировать посты могут только пользователи прошедшие не сложную регистрацию
    Показать сообщения:    


    Огненное детство через торрент
    Скачать бесплатно Огненное детство
    Огненное детство скачать торрент
    Огненное детство смотреть онлайн
    Cкачать фильм Огненное детство бесплатно
    Огненное детство скачать торрент в хорошем качестве
    Огненное детство смотреть онлайн бесплатно в хорошем качестве
    Вы не можете начинать темы
    Вы не можете отвечать на сообщения
    Вы не можете редактировать свои сообщения
    Вы не можете удалять свои сообщения
    Вы не можете голосовать в опросах
    Вы не можете прикреплять файлы к сообщениям
    Вы можете скачивать файлы
    Огненное детство [1976 г., приключения, семейный, детский, SATRip-AVC] смотреть онлайн, скачать торрент picoco.icu