Ссылка на приватное зеркало нашего сайта всего за 1$. Внимание количество ограничено!!!

2 сезон

iTunes

1 сезон

1

2 сезон

2 сезон

iTunes

1 сезон

RePack

30

Ultimate

ВАЖНО

ИГРА 18+

pack

RePack

MK11
pack

Забери бонус

RePack

jed

!!Акция!!

Alien_Rage

RePack

fifa19

RePack

Assassins Creed: Odyssey

RePack

NEED FOR SPEED™ PAYBACK

4 сезон

9 сезон

Бесстыжие 9 сезон

Все сериалы

все сериалы на PB.wtf

RePack

FAR CRY 5
  

Машина времени / The Time Machine (Саймон Уэллс) [2002, фантастика, боевик, приключения, HDDVDRip-HEVC 1080p] DUB + 2хMVO + DVO + 2xAVO + VO pb.wtf

Машина времени через торрент pb.wtf

Раздают: 3 [ 0 KB/s ]
Размер: 5.9 GB | Добавлен: 29 д. назад | Торрент скачан:92 раза
Скачать  

26-10-2020 03:36 Машина времени Скачать торрент  

Название: Машина времени
Оригинальное название: The Time Machine
Год производства: 2002
Жанр: фантастика, боевик, приключения
Режиссер: Саймон Уэллс
В ролях: Гай Пирс, Саманта Мамба, Орландо Джонс, Марк Эдди, Джереми Айронс, Сиенна Гиллори, Макс Бейкер, Филлида Ло, Лаура Кирк, Джош Стэмберг

О фильме: Профессор Александр Хартдеген изобрёл машину времени и отправился в прошлое, чтобы спасти свою невесту от случайной пули. Но это ему не удалось - прошлое нельзя изменить. Хартдеген попадает в будущее и видит Землю в ужасающем состоянии. После ранения и беспамятства он не заметил, как его машина прошла сквозь восемьсот тысяч лет истории Земли...



Страна: США, ОАЭ
Студия: DreamWorks Pictures, Warner Bros. Pictures
Продолжительность: 01:35:44
Перевод: дублированный, профессиональный многоголосый, профессиональный двухголосый, авторский одноголосый, любительский одноголосый

Качество: HDDVDRip-HEVC 1080p
Кодек: HEVC (x265)
Видео: 1920x796 (2.40:1), 4869 Кбит/сек, HEVC (Main10@L.4.1@High) 10 бит
Звук:
Аудио1: AC3, 6 ch, 640 Kbps - русский Дублированный
Аудио2: AC3, 6 ch, 640 Kbps - русский Многоголосый (#1)
Аудио3: AC3, 6 ch, 384 Kbps - русский Многоголосый (#2)
Аудио4: AC3, 6 ch, 384 Kbps - русский Двухголосый (Пётр Гланц и Инна Королёва)
Аудио5: AC3, 6 ch, 448 Kbps - русский Авторский (Сергей Кузнецов)
Аудио6: AC3, 6 ch, 448 Kbps - русский Авторский (Леонид Володарский)
Аудио7: AC3, 2 ch, 384 Kbps - русский Любительский (Леонид Векшин)
Аудио8: AC3, 6 ch, 640 Kbps - english Original
Субтитры: Русские полные (SRT), English full (SRT)
Навигация по главам: Есть
x265 [info]: frame I: 577, Avg QP:17.82 kb/s: 16219.60
x265 [info]: frame P: 32248, Avg QP:19.42 kb/s: 10692.54
x265 [info]: frame B: 104916, Avg QP:21.37 kb/s: 3015.09
x265 [info]: Weighted P-Frames: Y:7.8% UV:6.2%
x265 [info]: Weighted B-Frames: Y:7.7% UV:5.8%
x265 [info]: consecutive B-frames: 6.9% 6.0% 7.1% 51.3% 7.7% 15.9% 2.2% 2.4% 0.2% 0.2% 0.0% 0.0% 0.0% 0.1%
x265 [info]: encoded 137741 frames in 107499.84s (1.28 fps), 4867.85 kb/s, Avg QP:20.90
Общее
Уникальный идентификатор : 29413242025381023235021449597951647274 (0x1620C8CBAC8D21950ADFD6FB20A79E2A)
Полное имя : \\..\Машина.времени.The.Time.Machine.2002.HDDVDrip-HEVC.1080p.mkv
Формат : Matroska
Версия формата : Version 4
Размер файла : 5,90 Гбайт
Продолжительность : 1 ч. 35 м.
Общий поток : 8 829 Кбит/сек
Название фильма : Машина.времени.The.Time.Machine.2002.HDDVDrip-HEVC.1080p
Дата кодирования : UTC 2020-10-22 04:23:46
Программа кодирования : mkvmerge v51.0.0 ('I Wish') 64-bit
Библиотека кодирования : libebml v1.4.0 + libmatroska v1.6.2

Видео
Идентификатор : 1
Формат : HEVC
Формат/Информация : High Efficiency Video Coding
Профиль формата : Main 10@L4.1@High
Идентификатор кодека : V_MPEGH/ISO/HEVC
Продолжительность : 1 ч. 35 м.
Битрейт : 4 869 Кбит/сек
Ширина : 1 920 пикселей
Высота : 796 пикселей
Соотношение сторон : 2,40:1
Режим частоты кадров : Постоянный
Частота кадров : 23,976 (24000/1001) кадра/сек
Цветовое пространство : YUV
Субдискретизация насыщенности : 4:2:0
Битовая глубина : 10 бит
Бит/(Пиксели*Кадры) : 0.133
Размер потока : 3,26 Гбайт (55%)
Заголовок : The Time Machine / Rip by OldGamer
Библиотека кодирования : x265 3.4+4-g3ae3d7116:[Windows][GCC 10.2.0][64 bit] 10bit
Настройки программы : cpuid=1111039 / frame-threads=3 / numa-pools=8 / wpp / no-pmode / no-pme / no-psnr / no-ssim / log-level=2 / input-csp=1 / input-res=1920x796 / interlace=0 / total-frames=137741 / level-idc=41 / high-tier=1 / uhd-bd=0 / ref=5 / no-allow-non-conformance / no-repeat-headers / annexb / no-aud / no-hrd / info / hash=0 / no-temporal-layers / open-gop / min-keyint=23 / keyint=240 / gop-lookahead=0 / bframes=13 / b-adapt=2 / b-pyramid / bframe-bias=0 / rc-lookahead=40 / lookahead-slices=0 / scenecut=40 / hist-scenecut=0 / radl=0 / no-splice / no-intra-refresh / ctu=64 / min-cu-size=8 / rect / amp / max-tu-size=32 / tu-inter-depth=4 / tu-intra-depth=4 / limit-tu=1 / rdoq-level=2 / dynamic-rd=0.00 / no-ssim-rd / signhide / no-tskip / nr-intra=0 / nr-inter=0 / no-constrained-intra / no-strong-intra-smoothing / max-merge=5 / limit-refs=3 / no-limit-modes / me=3 / subme=7 / merange=57 / temporal-mvp / no-frame-dup / no-hme / weightp / weightb / no-analyze-src-pics / deblock=-3:-3 / no-sao / no-sao-non-deblock / rd=6 / selective-sao=0 / no-early-skip / rskip / no-fast-intra / no-tskip-fast / no-cu-lossless / b-intra / no-splitrd-skip / rdpenalty=0 / psy-rd=2.00 / psy-rdoq=1.00 / no-rd-refine / no-lossless / cbqpoffs=0 / crqpoffs=0 / rc=crf / crf=19.0 / qcomp=0.60 / qpstep=4 / stats-write=0 / stats-read=0 / vbv-maxrate=50000 / vbv-bufsize=50000 / vbv-init=0.9 / crf-max=0.0 / crf-min=0.0 / ipratio=1.40 / pbratio=1.30 / aq-mode=4 / aq-strength=1.00 / no-cutree / zone-count=1 / zones: / start-frame=130362 / end-frame=137733 / qp=36 / no-strict-cbr / qg-size=32 / no-rc-grain / qpmax=69 / qpmin=0 / no-const-vbv / sar=1 / overscan=0 / videoformat=5 / range=0 / colorprim=2 / transfer=2 / colormatrix=2 / chromaloc=0 / display-window=0 / cll=0,0 / min-luma=0 / max-luma=1023 / log2-max-poc-lsb=8 / vui-timing-info / vui-hrd-info / slices=1 / no-opt-qp-pps / no-opt-ref-list-length-pps / no-multi-pass-opt-rps / scenecut-bias=0.00 / hist-threshold=0.01 / no-opt-cu-delta-qp / no-aq-motion / no-hdr10 / no-hdr10-opt / no-dhdr10-opt / no-idr-recovery-sei / analysis-reuse-level=0 / analysis-save-reuse-level=0 / analysis-load-reuse-level=0 / scale-factor=0 / refine-intra=0 / refine-inter=0 / refine-mv=1 / refine-ctu-distortion=0 / no-limit-sao / ctu-info=0 / no-lowpass-dct / refine-analysis-type=0 / copy-pic=1 / max-ausize-factor=1.0 / no-dynamic-refine / no-single-sei / no-hevc-aq / no-svt / no-field / qp-adaptation-range=1.00 / no-scenecut-aware-qpconformance-window-offsets / right=0 / bottom=0 / decoder-max-rate=0
Язык : English
Default : Да
Forced : Нет

Аудио #1
Идентификатор : 2
Формат : AC-3
Формат/Информация : Audio Coding 3
Коммерческое название : Dolby Digital
Идентификатор кодека : A_AC3
Продолжительность : 1 ч. 35 м.
Вид битрейта : Постоянный
Битрейт : 640 Кбит/сек
Каналы : 6 каналов
Channel layout : L R C LFE Ls Rs
Частота : 48,0 КГц
Частота кадров : 31,250 кадров/сек (1536 SPF)
Метод сжатия : С потерями
Размер потока : 438 Мбайт (7%)
Заголовок : DUB
Язык : Russian
Service kind : Complete Main
Default : Да
Forced : Нет

Аудио #2
Идентификатор : 3
Формат : AC-3
Формат/Информация : Audio Coding 3
Коммерческое название : Dolby Digital
Идентификатор кодека : A_AC3
Продолжительность : 1 ч. 35 м.
Вид битрейта : Постоянный
Битрейт : 640 Кбит/сек
Каналы : 6 каналов
Channel layout : L R C LFE Ls Rs
Частота : 48,0 КГц
Частота кадров : 31,250 кадров/сек (1536 SPF)
Метод сжатия : С потерями
Размер потока : 438 Мбайт (7%)
Заголовок : MVO #1
Язык : Russian
Service kind : Complete Main
Default : Нет
Forced : Нет

Аудио #3
Идентификатор : 4
Формат : AC-3
Формат/Информация : Audio Coding 3
Коммерческое название : Dolby Digital
Идентификатор кодека : A_AC3
Продолжительность : 1 ч. 35 м.
Вид битрейта : Постоянный
Битрейт : 384 Кбит/сек
Каналы : 6 каналов
Channel layout : L R C LFE Ls Rs
Частота : 48,0 КГц
Частота кадров : 31,250 кадров/сек (1536 SPF)
Метод сжатия : С потерями
Размер потока : 263 Мбайт (4%)
Заголовок : MVO #2
Язык : Russian
Service kind : Complete Main
Default : Нет
Forced : Нет

Аудио #4
Идентификатор : 5
Формат : AC-3
Формат/Информация : Audio Coding 3
Коммерческое название : Dolby Digital
Идентификатор кодека : A_AC3
Продолжительность : 1 ч. 35 м.
Вид битрейта : Постоянный
Битрейт : 384 Кбит/сек
Каналы : 6 каналов
Channel layout : L R C LFE Ls Rs
Частота : 48,0 КГц
Частота кадров : 31,250 кадров/сек (1536 SPF)
Метод сжатия : С потерями
Размер потока : 263 Мбайт (4%)
Заголовок : DVO (Пётр Гланц и Инна Королёва)
Язык : Russian
Service kind : Complete Main
Default : Нет
Forced : Нет

Аудио #5
Идентификатор : 6
Формат : AC-3
Формат/Информация : Audio Coding 3
Коммерческое название : Dolby Digital
Идентификатор кодека : A_AC3
Продолжительность : 1 ч. 35 м.
Вид битрейта : Постоянный
Битрейт : 448 Кбит/сек
Каналы : 6 каналов
Channel layout : L R C LFE Ls Rs
Частота : 48,0 КГц
Частота кадров : 31,250 кадров/сек (1536 SPF)
Метод сжатия : С потерями
Размер потока : 307 Мбайт (5%)
Заголовок : AVO (Сергей Кузнецов)
Язык : Russian
Service kind : Complete Main
Default : Нет
Forced : Нет

Аудио #6
Идентификатор : 7
Формат : AC-3
Формат/Информация : Audio Coding 3
Коммерческое название : Dolby Digital
Идентификатор кодека : A_AC3
Продолжительность : 1 ч. 35 м.
Вид битрейта : Постоянный
Битрейт : 448 Кбит/сек
Каналы : 6 каналов
Channel layout : L R C LFE Ls Rs
Частота : 48,0 КГц
Частота кадров : 31,250 кадров/сек (1536 SPF)
Метод сжатия : С потерями
Размер потока : 307 Мбайт (5%)
Заголовок : AVO (Леонид Володарский)
Язык : Russian
Service kind : Complete Main
Default : Нет
Forced : Нет

Аудио #7
Идентификатор : 8
Формат : AC-3
Формат/Информация : Audio Coding 3
Коммерческое название : Dolby Digital
Идентификатор кодека : A_AC3
Продолжительность : 1 ч. 32 м.
Вид битрейта : Постоянный
Битрейт : 384 Кбит/сек
Каналы : 2 канала
Channel layout : L R
Частота : 48,0 КГц
Частота кадров : 31,250 кадров/сек (1536 SPF)
Метод сжатия : С потерями
Размер потока : 255 Мбайт (4%)
Заголовок : VO (Леонид Векшин)
Язык : Russian
Service kind : Complete Main
Default : Нет
Forced : Нет

Аудио #8
Идентификатор : 9
Формат : AC-3
Формат/Информация : Audio Coding 3
Коммерческое название : Dolby Digital
Идентификатор кодека : A_AC3
Продолжительность : 1 ч. 35 м.
Вид битрейта : Постоянный
Битрейт : 640 Кбит/сек
Каналы : 6 каналов
Channel layout : L R C LFE Ls Rs
Частота : 48,0 КГц
Частота кадров : 31,250 кадров/сек (1536 SPF)
Метод сжатия : С потерями
Размер потока : 438 Мбайт (7%)
Язык : English
Service kind : Complete Main
Default : Нет
Forced : Нет

Текст #1
Идентификатор : 10
Формат : UTF-8
Идентификатор кодека : S_TEXT/UTF8
Идентификатор кодека/Информация : UTF-8 Plain Text
Продолжительность : 1 ч. 28 м.
Битрейт : 59 бит/сек
Count of elements : 660
Размер потока : 38,6 Кбайт (0%)
Язык : Russian
Default : Нет
Forced : Нет

Текст #2
Идентификатор : 11
Формат : UTF-8
Идентификатор кодека : S_TEXT/UTF8
Идентификатор кодека/Информация : UTF-8 Plain Text
Продолжительность : 1 ч. 27 м.
Битрейт : 39 бит/сек
Count of elements : 601
Размер потока : 25,3 Кбайт (0%)
Язык : English
Default : Нет
Forced : Нет

Меню
00:00:00.000 : en:Chapter 01
00:03:33.118 : en:Chapter 02
00:07:26.201 : en:Chapter 03
00:12:00.120 : en:Chapter 04
00:18:13.644 : en:Chapter 05
00:24:55.308 : en:Chapter 06
00:30:07.587 : en:Chapter 07
00:36:20.175 : en:Chapter 08
00:46:07.054 : en:Chapter 09
00:53:21.902 : en:Chapter 10
01:01:23.780 : en:Chapter 11
01:08:10.210 : en:Chapter 12
01:17:32.881 : en:Chapter 13
01:22:34.109 : en:Chapter 14
01:26:24.533 : en:Chapter 15
01:29:53.341 : en:Chapter 16
01:35:39.988 : en:Chapter 17


Релиз от: OldGamerpb.wtf



Скачать Машина времени через торрент https://a.radikal.ru/a19/2010/8d/05320440dc81.jpg Скачать фильм Машина времени через торрент бесплантно в хорошем качестве О фильме: Профессор Александр Хартдеген изобрёл машину времени и отправился в прошлое, чтобы спасти свою невесту от случайной пули. Но это ... 10 10 9
Торрент: Зарегистрирован [2020-10-26 03:36] · скачан: 92 раз
Статус: √ проверено
Размер: 5.9 GB
Как cкачать? Как скачать Машина времени через торрент | qTorrent

28-11-2019 20:33  

Отключить всю рекламу на сайте

26-10-2020 04:50 Машина времени Скачать торрент  

Жалкое подобие Уэлса.pb.wtf



26-10-2020 11:06 Машина времени Скачать торрент  

Bobr751 писал(а):

Жалкое подобие Уэлса.

это ты жалкое подобие
кино хорошееpb.wtf



    Дорогой пользователь! Огромная просьба, поблагодарите релизера, оцените раздачу и оставьте свои комментарий, если Вы скачали Машина времени через торрент бесплатно! Внесите свою лепту в развитие PiratBit!
    Комментировать посты могут только пользователи прошедшие не сложную регистрацию
    Показать сообщения:    

    Машина времени через торрент
    Скачать бесплатно Машина времени
    Машина времени скачать торрент
    Машина времени смотреть онлайн
    Cкачать фильм Машина времени бесплатно
    Машина времени скачать торрент в хорошем качестве
    Машина времени смотреть онлайн бесплатно в хорошем качестве


    Вы не можете начинать темы
    Вы не можете отвечать на сообщения
    Вы не можете редактировать свои сообщения
    Вы не можете удалять свои сообщения
    Вы не можете голосовать в опросах
    Вы не можете прикреплять файлы к сообщениям
    Вы можете скачивать файлы