Ссылка на приватное зеркало нашего сайта всего за 1$. Внимание количество ограничено!!!

2 сезон

iTunes

1 сезон

1

2 сезон

2 сезон

iTunes

1 сезон

RePack

30

Новинка

ВАЖНО

ИГРА 18+

pack

RePack

MK11
pack

Забери бонус

RePack

jed

!!Акция!!

Alien_Rage

RePack

fifa19

RePack

Assassins Creed: Odyssey

RePack

NEED FOR SPEED™ PAYBACK

4 сезон

9 сезон

Бесстыжие 9 сезон

Все сериалы

все сериалы на PB.wtf

RePack

FAR CRY 5
  

Думай как собака / Think Like a Dog (Джил Джангер) [2020 г., Фантастика, драма, комедия, семейный, HDRip, КПК] Dub [iTunes] pb.wtf

Думай как собака через торрент pb.wtf

Размер: 346 MB | Добавлен: 1 мес. назад | Торрент скачан:2 раза
Скачать  

26-10-2020 12:28 Думай как собака Скачать торрент  

Думай как собака / Think Like a Dog

Год выпуска: 2020
Страна: Китай, США, Великобритания
Жанр: Фантастика, драма, комедия, семейный
Продолжительность: 01:30:54
Перевод: Дубляж | iTunes
Субтитры: Нет

Режиссер: Джил Джангер

rating

В ролях: Гэбриел Бейтман, Джош Дюамель, Меган Фокс, Мэдисон Хорчер, Минхао Хоу, Исаак Ванг, Диллон Альф, Билли Джонстон, Кунал Найяр, Джанет Монтгомери

Описание: В ходе научного эксперимента 12-летний вундеркинд Оливер устанавливает телепатическую связь с любимым и, как оказалось, очень умным псом Генри. Благодаря подсказкам собаки парню удается решать проблемы в школе, дома и даже с девочками...

Качество: HDRip | КПК
Формат: MP4
Видео кодек: H.264
Аудио кодек: AAC LC
Видео: H.264, 640х344, 400 kb/s, 23.976 FPS
Аудио#1: AAC LC, 2 ch, 128 kb/s
General
Complete name : D:\Изготовление рипа\Think.Like.a.Dog.2020.HDRip.KPK.by.sergey82.RG GeneralFilm.mp4
Format : MPEG-4
Format profile : Base Media
Codec ID : isom (isom/avc1/iso6)
File size : 346 MiB
Duration : 1 h 30 min
Overall bit rate mode : Variable
Overall bit rate : 532 kb/s
Encoded date : UTC 2020-10-26 11:29:25
Tagged date : UTC 2020-10-26 11:29:25

Video
ID : 1
Format : AVC
Format/Info : Advanced Video Codec
Format profile : High@L4.1
Format settings : CABAC / 4 Ref Frames
Format settings, CABAC : Yes
Format settings, Reference : 4 frames
Codec ID : avc1
Codec ID/Info : Advanced Video Coding
Duration : 1 h 30 min
Bit rate : 400 kb/s
Maximum bit rate : 3 954 kb/s
Width : 640 pixels
Height : 344 pixels
Display aspect ratio : 1.85:1
Frame rate mode : Constant
Frame rate : 23.976 (24000/1001) FPS
Color space : YUV
Chroma subsampling : 4:2:0
Bit depth : 8 bits
Scan type : Progressive
Bits/(Pixel*Frame) : 0.076
Stream size : 260 MiB (75%)
Title : 264@GPAC0.5.2-DEV-rev248-g39d5978-master
Writing library : x264 core 146 r2538 121396c
Encoding settings : cabac=1 / ref=3 / deblock=1:0:0 / analyse=0x3:0x113 / me=hex / subme=7 / psy=1 / psy_rd=1.00:0.00 / mixed_ref=1 / me_range=16 / chroma_me=1 / trellis=1 / 8x8dct=1 / cqm=0 / deadzone=21,11 / fast_pskip=1 / chroma_qp_offset=-2 / threads=6 / lookahead_threads=1 / sliced_threads=0 / nr=0 / decimate=1 / interlaced=0 / bluray_compat=0 / constrained_intra=0 / bframes=3 / b_pyramid=2 / b_adapt=1 / b_bias=0 / direct=1 / weightb=1 / open_gop=0 / weightp=2 / keyint=250 / keyint_min=23 / scenecut=40 / intra_refresh=0 / rc_lookahead=40 / rc=2pass / mbtree=1 / bitrate=400 / ratetol=1.0 / qcomp=0.60 / qpmin=0 / qpmax=69 / qpstep=4 / cplxblur=20.0 / qblur=0.5 / ip_ratio=1.40 / aq=1:1.00
Encoded date : UTC 2020-10-26 11:29:25
Tagged date : UTC 2020-10-26 11:29:30
Codec configuration box : avcC

Audio
ID : 2
Format : AAC LC
Format/Info : Advanced Audio Codec Low Complexity
Codec ID : mp4a-40-2
Duration : 1 h 30 min
Bit rate mode : Variable
Bit rate : 128 kb/s
Maximum bit rate : 138 kb/s
Channel(s) : 2 channels
Channel layout : L R
Sampling rate : 48.0 kHz
Frame rate : 46.875 FPS (1024 SPF)
Compression mode : Lossy
Stream size : 83.2 MiB (24%)
Encoded date : UTC 2020-10-26 11:02:26
Tagged date : UTC 2020-10-26 11:29:30

pb.wtf



Скачать Думай как собака через торрент https://c.radikal.ru/c02/2010/e5/c0e67d506c3e.png Скачать фильм Думай как собака через торрент бесплантно в хорошем качестве Описание: В ходе научного эксперимента 12-летний вундеркинд Оливер устанавливает телепатическую связь с любимым и, как оказалось, очень ... 5 10 1
Торрент: Зарегистрирован [2020-10-26 12:28] · скачан: 2 раз
Статус: √ проверено
Размер: 346 MB
Как cкачать? Как скачать Думай как собака через торрент | qTorrent

% Раздел Тема Автор DL S | L
Фильмы 2019-2020 [DVDrip, WEB-DLRip, HDrip] (DUB, MVO) [ 745 MB ] Думай как собака / Think Like a Dog [2020 HDRip] bober100 Скачать
2 | 0
Фильмы (Blu-ray, BD-Remux, HDDVD) [ 17.99 GB ] Думай как собака / Think Like a Dog [2020 BD Remux 1080p] bober100 Скачать
2 | 0
Фильмы [HD 720p, 1080p] (Хороший звук DUB, MVO) [ 4.07 GB ] Думай как собака / Think Like a Dog [2020 BDRip 720p] bober100 Скачать
3 | 0
Фильмы 2019-2020 [DVDrip, WEB-DLRip, HDrip] (DUB, MVO) [ 1.44 GB ] Думай как собака / Think Like a Dog [2020 HDRip-AVC] [MVO] от MediaBit Lithuania Скачать
2 | 1
Фильмы [HD 720p, 1080p] (Хороший звук DUB, MVO) [ 9.78 GB ] Думай как собака / Think Like a Dog [2020 BDRip 1080p] killermax2013 Скачать
3 | 0
Фильмы 2019-2020 [DVDrip, WEB-DLRip, HDrip] (DUB, MVO) [ 1.46 GB ] Думай как собака / Think Like a Dog [2020 BDRip] killermax2013 Скачать
2 | 0
Фильмы с украинским озвучиванием [ 1.21 GB ] Думай как собака / Думай як пес / Think Like a Dog [2020 BDRip-AVC] [Ukr DUB] killermax2013 Скачать
1 | 0

28-11-2019 20:33  

Отключить всю рекламу на сайте

    Дорогой пользователь! Огромная просьба, поблагодарите релизера, оцените раздачу и оставьте свои комментарий, если Вы скачали Думай как собака через торрент бесплатно! Внесите свою лепту в развитие PiratBit!
    Комментировать посты могут только пользователи прошедшие не сложную регистрацию
    Показать сообщения:    

    Думай как собака через торрент
    Скачать бесплатно Думай как собака
    Думай как собака скачать торрент
    Думай как собака смотреть онлайн
    Cкачать фильм Думай как собака бесплатно
    Думай как собака скачать торрент в хорошем качестве
    Думай как собака смотреть онлайн бесплатно в хорошем качестве


    Вы не можете начинать темы
    Вы не можете отвечать на сообщения
    Вы не можете редактировать свои сообщения
    Вы не можете удалять свои сообщения
    Вы не можете голосовать в опросах
    Вы не можете прикреплять файлы к сообщениям
    Вы можете скачивать файлы