Ссылка на приватное зеркало нашего сайта всего за 1$. Внимание количество ограничено!!!

2 сезон

iTunes

1 сезон

1

2 сезон

2 сезон

iTunes

1 сезон

RePack

30

Ultimate

ВАЖНО

ИГРА 18+

pack

RePack

MK11
pack

Забери бонус

RePack

jed

!!Акция!!

Alien_Rage

RePack

fifa19

RePack

Assassins Creed: Odyssey

RePack

NEED FOR SPEED™ PAYBACK

4 сезон

9 сезон

Бесстыжие 9 сезон

Все сериалы

все сериалы на PB.wtf

RePack

FAR CRY 5
  

Ко-ко-ко! / La Gallina Turuleca / Turu, the Wacky hen (Эдуардо Гонделл, Виктор Мониготе) [2019, Мультфильм, мюзикл, приключения, семейный, WEB-DL 1080p] DUB [iTunes] pb.wtf

Ко-ко-ко! через торрент pb.wtf

Раздают: 5 [ 0 KB/s ]
Размер: 2.73 GB | Добавлен: 1 мес. 3 д. назад | Торрент скачан:89 раз
Скачать  

26-10-2020 16:32 Ко-ко-ко! Скачать торрент  

Ко-ко-ко! | La Gallina Turuleca | Turu, the Wacky hen
Год выпуска: 2019
Страна: Испания, Аргентина
Студия: Argentina Sono Film S.A.C.I., Brown Films AIE, Gloriamundi Producciones
Жанр: Мультфильм, мюзикл, приключения, семейный
Продолжительность: 01:19:47
Перевод: Дублированный | iTunes
Субтитры: отсутствуют

Режиссер: Эдуардо Гонделл, Виктор Мониготе

rating

В ролях: Эва Аче, Альваро де Хуана Пекос, Ана де Анхелес, Хосе Мота, Паула Кориа Портилья, Алехандро Гарсиа, Лоренцо Бетета, Виктор Мониготе, Альваро Наварро, Сандра Вилья Гарсиа

Описание: Удивительные приключения необычной курочки, которая умеет отлично петь, танцевать и мечтает стать звездой цирка.

Качество: WEB-DL 1080p
Формат: MKV

Видео: MPEG-4 AVC, 4506 Kb/s, 1920x804, 24 fps
Аудио: 48 kHz, AC3 Dolby Digital, 3/2 (L, C, R, l, r) + LFE ch, ~384 kbps
скриншот  скриншот  скриншот  скриншот  

Video
ID : 1
Format : AVC
Format/Info : Advanced Video Codec
Format profile : High@L4
Format settings : CABAC / 5 Ref Frames
Format settings, CABAC : Yes
Format settings, Reference : 5 frames
Codec ID : V_MPEG4/ISO/AVC
Duration : 1 h 19 min
Bit rate : 4 506 kb/s
Width : 1 920 pixels
Height : 804 pixels
Display aspect ratio : 2.40:1
Frame rate mode : Constant
Frame rate : 24.000 FPS
Color space : YUV
Chroma subsampling : 4:2:0
Bit depth : 8 bits
Scan type : Progressive
Bits/(Pixel*Frame) : 0.122
Stream size : 2.51 GiB (92%)
Title : KO-KO-KO!_2019_WEB-DL_1080p-BLUEBIRD
Language : English
Default : Yes
Forced : No
Color range : Limited
Color primaries : BT.709
Transfer characteristics : BT.709
Matrix coefficients : BT.709

Audio
ID : 2
Format : AC-3
Format/Info : Audio Coding 3
Commercial name : Dolby Digital
Codec ID : A_AC3
Duration : 1 h 19 min
Bit rate mode : Constant
Bit rate : 384 kb/s
Channel(s) : 6 channels
Channel layout : L R C LFE Ls Rs
Sampling rate : 48.0 kHz
Frame rate : 31.250 FPS (1536 SPF)
Compression mode : Lossy
Delay relative to video : -42 ms
Stream size : 219 MiB (8%)
Title : [DUB] DD 5.1 @ 384 kbps (iTunes)
Language : Russian
Service kind : Complete Main
Default : Yes
Forced : No

Menu
00:00:00.000 : en:Глава 1
00:06:53.708 : en:Глава 2
00:13:50.874 : en:Глава 3
00:20:29.332 : en:Глава 4
00:28:00.082 : en:Глава 5
00:35:12.082 : en:Глава 6
00:43:28.082 : en:Глава 7
00:51:12.873 : en:Глава 8
01:01:25.623 : en:Глава 9
01:11:21.831 : en:Глава 10

pb.wtf



Скачать Ко-ко-ко! через торрент https://b.radikal.ru/b20/2010/54/d03b6b7f38be.png Скачать фильм Ко-ко-ко! через торрент бесплантно в хорошем качестве Описание: Удивительные приключения необычной курочки, которая умеет отлично петь, танцевать и мечтает стать звездой ... 10 10 3
Торрент: Зарегистрирован [2020-10-26 16:32] · скачан: 89 раз
Статус: √ проверено
Размер: 2.73 GB
Как cкачать? Как скачать Ко-ко-ко! через торрент | qTorrent

28-11-2019 20:33  

Отключить всю рекламу на сайте

    Дорогой пользователь! Огромная просьба, поблагодарите релизера, оцените раздачу и оставьте свои комментарий, если Вы скачали Ко-ко-ко! через торрент бесплатно! Внесите свою лепту в развитие PiratBit!
    Комментировать посты могут только пользователи прошедшие не сложную регистрацию
    Показать сообщения:    

    Ко-ко-ко! через торрент
    Скачать бесплатно Ко-ко-ко!
    Ко-ко-ко! скачать торрент
    Ко-ко-ко! смотреть онлайн
    Cкачать фильм Ко-ко-ко! бесплатно
    Ко-ко-ко! скачать торрент в хорошем качестве
    Ко-ко-ко! смотреть онлайн бесплатно в хорошем качестве


    Вы не можете начинать темы
    Вы не можете отвечать на сообщения
    Вы не можете редактировать свои сообщения
    Вы не можете удалять свои сообщения
    Вы не можете голосовать в опросах
    Вы не можете прикреплять файлы к сообщениям
    Вы можете скачивать файлы