Ссылка на приватное зеркало нашего сайта всего за 1$. Внимание количество ограничено!!!

2 сезон

iTunes

1 сезон

1

2 сезон

2 сезон

iTunes

1 сезон

RePack

30

Ultimate

ВАЖНО

ИГРА 18+

pack

RePack

MK11
pack

Забери бонус

RePack

jed

!!Акция!!

Alien_Rage

RePack

fifa19

RePack

Assassins Creed: Odyssey

RePack

NEED FOR SPEED™ PAYBACK

4 сезон

9 сезон

Бесстыжие 9 сезон

Все сериалы

все сериалы на PB.wtf

RePack

FAR CRY 5
  

Чудо-детки: Непутевые волшебники / Die Wolf-Gäng / The Magic Kids - Three Unlikely Heroes (Тим Трагезер) [2020, Фэнтези, приключения, семейный, WEB-DL 1080p] DUB [iTunes] pb.wtf

Чудо-детки: Непутевые волшебники через торрент pb.wtf

Раздают: 8 [ 1 KB/s ]
Размер: 3.37 GB | Добавлен: 1 мес. 4 д. назад | Торрент скачан:121 раз
Скачать  

28-10-2020 18:59 Чудо-детки: Непутевые волшебники Скачать торрент  

Чудо-детки: Непутевые волшебники
Die Wolf-Gäng | The Magic Kids - Three Unlikely Heroes

Год выпуска: 2020
Страна: Германия
Выпущено: Rat Pack Filmproduktion, Deutsche Columbia Pictures Film Produktion
Жанр: Фэнтези, приключения, семейный
Продолжительность: 01:36:50
Перевод: Дублированный | iTunes
Субтитры: отсутствуют

Режиссер: Тим Трагезер

rating

В ролях: Кристиан Беркель, Арсений Бультман, Буц Бузе, Ширли Феринг, Арвед Фризе, Соня Герхардт, Николь Хеестерс, Грета Хуберт, Рик Каваниан, Торстен Кавур

Описание: В центре сюжета картины история 13-летнего мальчика вампира Влада, который попадает в одну из самых престижных школ волшебства мира. Городок Краильсфельден и школа оказываются пристанищем самых разнообразных сказочных существ. С появлением Влада и его отца там теперь есть и вампиры. Всё выглядит чудесно, но у маленького Влада есть одна большая проблема. Вампир совершенно не выносит вида крови. Его друзьями в школе становятся два таких же неудачника: страдающая аэрофобией фея и мальчик-оборотень с аллергией на шерсть животных. Вместе трём героям предстоит пережить незабываемые приключения и бросить вызов мэру городка.

Качество: WEB-DL 1080p
Формат: MKV

Видео: MPEG-4 AVC, 4594 Kb/s, 1920x802, 24 FPS
Аудио: 48 kHz, AC3 Dolby Digital, 3/2 (L, C, R, l, r) + LFE ch, ~384 kbps
скриншот  скриншот  скриншот  скриншот  

Complete name: Chudo.detki.Neputevyie.volshebniki.2020.WEB-DL.1080p.ELEKTRI4KA.UNIONGANG.mkv
Format: Matroska
Format version: Version 4 / Version 2
File size: 3.37 GiB
Duration: 1 h 36 min
Overall bit rate: 4 980 kb/s
Movie name: .ELEKTRI4KA.UNIONGANG.
Encoded date: UTC 2020-10-28 18:38:41
Writing application: mkvmerge v8.3.0 ('Over the Horizon') 64bit
Writing library: libebml v1.3.1 + libmatroska v1.4.2

Video
ID: 1
Format: AVC
Format/Info: Advanced Video Codec
Format profile: High@L4
Format settings, CABAC: Yes
Format settings, Reference frames: 5 frames
Codec ID: V_MPEG4/ISO/AVC
Duration: 1 h 36 min
Bit rate: 4 594 kb/s
Width: 1 920 pixels
Height: 802 pixels
Display aspect ratio: 2.40:1
Frame rate mode: Constant
Frame rate: 24.000 FPS
Color space: YUV
Chroma subsampling: 4:2:0
Bit depth: 8 bits
Scan type: Progressive
Bits/(Pixel*Frame): 0.124
Stream size: 3.11 GiB (92%)
Title: .ELEKTRI4KA.UNIONGANG.
Language: English
Default: Yes
Forced: No
Color range: Limited
Color primaries: BT.709
Transfer characteristics: BT.709
Matrix coefficients: BT.709

Audio
ID: 2
Format: AC-3
Format/Info: Audio Coding 3
Mode extension: CM (complete main)
Format settings, Endianness: Big
Codec ID: A_AC3
Duration: 1 h 36 min
Bit rate mode: Constant
Bit rate: 384 kb/s
Channel(s): 6 channels
Channel positions: Front: L C R, Side: L R, LFE
Sampling rate: 48.0 kHz
Frame rate: 31.250 FPS (1536 spf)
Bit depth: 16 bits
Compression mode: Lossy
Stream size: 266 MiB (8%)
Title: DUB (iTunes)
Language: Russian
Default: Yes
Forced: Yes

Menu
00:00:00.000: en:Глава 1
00:08:21.625: en:Глава 2
00:16:35.125: en:Глава 3
00:25:08.416: en:Глава 4
00:33:58.041: en:Глава 5
00:42:41.999: en:Глава 6
00:50:53.665: en:Глава 7
00:58:59.748: en:Глава 8
01:06:48.581: en:Глава 9
01:14:54.414: en:Глава 10
01:23:13.497: en:Глава 11

pb.wtf



Скачать Чудо-детки: Непутевые волшебники через торрент https://i3.imageban.ru/out/2020/10/28/669b161e46c5d42941a8cf2084974ac2.png Скачать фильм Чудо-детки: Непутевые волшебники через торрент бесплантно в хорошем качестве Описание: В центре сюжета картины история 13-летнего мальчика вампира Влада, который попадает в одну из самых престижных школ волшебства ... 8.9 10 8
Торрент: Зарегистрирован [2020-10-28 18:59] · скачан: 121 раз
Статус: √ проверено
Размер: 3.37 GB
Как cкачать? Как скачать Чудо-детки: Непутевые волшебники через торрент | qTorrent

% Раздел Тема Автор DL S | L
Фильмы 2019-2020 [DVDrip, WEB-DLRip, HDrip] (DUB, MVO) [ 1.42 GB ] Чудо-детки: Непутевые волшебники / Die Wolf-Gäng / The Magic Kids - Three Unlikely Heroes [2020 p] - Twi7ter Скачать
41 | 5
Фильмы [HD 720p, 1080p] (Хороший звук DUB, MVO) [ 9.15 GB ] Чудо-детки: Непутевые волшебники / Die Wolf-Gäng / The Magic Kids - Three Unlikely Heroes [2020 BDRip 1080p] bober100 Скачать
12 | 0
Фильмы [HD 720p, 1080p] (Хороший звук DUB, MVO) [ 4.91 GB ] Чудо-детки: Непутевые волшебники / Die Wolf-Gäng / The Magic Kids - Three Unlikely Heroes [2020 BDRip 720p] bober100 Скачать
3 | 0
Фильмы (Blu-ray, BD-Remux, HDDVD) [ 21.79 GB ] Чудо-детки: Непутевые волшебники / Die Wolf-Gäng / The Magic Kids - Three Unlikely Heroes [2020 BD Remux 1080p] bober100 Скачать
2 | 0
Фильмы 2019-2020 [DVDrip, WEB-DLRip, HDrip] (DUB, MVO) [ 1.43 GB ] Чудо-детки: Непутевые волшебники / Die Wolf-Gäng / The Magic Kids - Three Unlikely Heroes [2020 WEB-DLRip-AVC] от MediaBit Lithuania Скачать
8 | 0
Фильмы 2019-2020 [DVDrip, WEB-DLRip, HDrip] (DUB, MVO) [ 1.46 GB ] Чудо-детки: Непутевые волшебники / Die Wolf-Gäng / The Magic Kids - Three Unlikely Heroes [2020 WEB-DLRip] bober100 Скачать
8 | 0

28-11-2019 20:33  

Отключить всю рекламу на сайте

28-10-2020 20:06 Чудо-детки: Непутевые волшебники Скачать торрент  

ПОТТЕР-возрождение?pb.wtf



    Дорогой пользователь! Огромная просьба, поблагодарите релизера, оцените раздачу и оставьте свои комментарий, если Вы скачали Чудо-детки: Непутевые волшебники через торрент бесплатно! Внесите свою лепту в развитие PiratBit!
    Комментировать посты могут только пользователи прошедшие не сложную регистрацию
    Показать сообщения:    

    Чудо-детки: Непутевые волшебники через торрент
    Скачать бесплатно Чудо-детки: Непутевые волшебники
    Чудо-детки: Непутевые волшебники скачать торрент
    Чудо-детки: Непутевые волшебники смотреть онлайн
    Cкачать фильм Чудо-детки: Непутевые волшебники бесплатно
    Чудо-детки: Непутевые волшебники скачать торрент в хорошем качестве
    Чудо-детки: Непутевые волшебники смотреть онлайн бесплатно в хорошем качестве


    Вы не можете начинать темы
    Вы не можете отвечать на сообщения
    Вы не можете редактировать свои сообщения
    Вы не можете удалять свои сообщения
    Вы не можете голосовать в опросах
    Вы не можете прикреплять файлы к сообщениям
    Вы можете скачивать файлы