2 сезон

iTunes

MVO

1

2 сезон

iTunes

iTunes

1 сезон

RePack

30

Новинка

ВАЖНО

ИГРА 18+

pack

RePack

MK11
pack

Легкие деньги

RePack

jed

RePack

fifa19

RePack

RDR2

RePack

NEED FOR SPEED™ PAYBACK

4 сезон

9 сезон

Бесстыжие 9 сезон

Все сериалы

все сериалы на PB.wtf

RePack

FAR CRY 5

Anonymous, доброе утро, мы не успеваем собрать деньги на оплату серверов за декабрь и январь, помогите нам пожалуйста в это трудное время. В качестве благодарности мы отключим Вам всю рекламу на сайте (укажите свой ник в строку Ваше имя)!

×
  
Magnet ссылка

Мулан / Mulan (Ники Каро) [2020 г., Боевик, фэнтези, драма, HDRip-AVC] [MVO] [HDRezka Studio] от MediaBit pb.wtf

Мулан через торрент pb.wtf

Раздают: 1 [ 0 KB/s ]
Размер: 1.44 GB | Добавлен: 2 мес. 21 д. назад | Торрент скачан:98 раз
Скачать  

31-10-2020 19:12 Мулан Скачать торрент  


Мулан / Mulan
Информация о фильме:
Название: Мулан
Оригинальное название: Mulan
Год выхода: 2020
Жанр: Боевик, драма, фэнтези
Режиссер: Ники Каро
В ролях: Ифэй Лю, Донни Йен, Гун Ли, Джет Ли, Джейсон Скотт Ли, Йосон Ань, Ци Ма, Розалинд Чао, Чжэн Пэйпэй, Сюзанна Тан

Описание: Изданный императором Китая указ о призыве на службу в армии одного мужчины из каждой семьи для защиты страны от северных захватчиков вдохновляет Мулан, старшую дочь почетного воина, занять в войсках место больного отца. Маскируясь под мужчину, девушка подвергается испытаниям на каждом шагу, проявляя свои внутреннюю силу и истинный потенциал. Мулан ждет эпичное путешествие, которое превратит её в доблестного воина, позволит заслужить уважение народа и стать гордостью отца.



Страна: США, Китай, Канада
Студия: China Film Group Corporation (CFGC), Good Fear Film + Management, Jason T. Reed Productions, Walt Disney Pictures
Продолжительность: 01:55:11
Перевод: Профессиональный (многоголосый, закадровый) - HDRezka Studio



Информация о файле:
Кодек: AVC
Формат: MKV
Качество: HDRip-AVC
Видео: MPEG-4 AVC, 1024x428 (2.40:1), 23.976 fps, 1336 kb/s, 0.127
Аудио RU: AC3, 6 ch, 48 kHz, 448 kbps
Субтитры: Русские (Forced, Full - "Focs"), английские (Full, SDH)
Навигация по главам: Да

x264 info: frame I:1802 Avg QP:16.66 size: 60023
x264 info: frame P:42039 Avg QP:20.80 size: 13806
x264 info: frame B:121862 Avg QP:22.14 size: 3817
x264 info: consecutive B-frames: 4.3% 8.9% 10.1% 22.2% 14.4% 22.2% 7.0% 4.1% 2.8% 1.7% 2.2% 0.2%
==================================
General
Unique ID : 114653344932063004343863977286892954140 (0x56416E5783FD72767032052FCFBEA21C)
Complete name : D:uTorrentРипы_от_wolf1245_MediaBitMulan (2020) from wolf1245 & MediaBit.mkv
Format : Matroska
Format version : Version 4
File size : 1.44 GiB
Duration : 1 h 55 min
Overall bit rate : 1 785 kb/s
Movie name : Mulan (2020) from wolf1245 & MediaBit
Encoded date : UTC 2020-10-31 18:59:42
Writing application : mkvmerge v51.0.0 ('I Wish') 64-bit
Writing library : libebml v1.4.0 + libmatroska v1.6.2
Cover : Yes
Attachments : cover / cover.jpg
Video
ID : 1
Format : AVC
Format/Info : Advanced Video Codec
Format profile : High@L4.1
Format settings : CABAC / 11 Ref Frames
Format settings, CABAC : Yes
Format settings, Reference frames : 11 frames
Codec ID : V_MPEG4/ISO/AVC
Duration : 1 h 55 min
Bit rate : 1 336 kb/s
Width : 1 024 pixels
Height : 428 pixels
Display aspect ratio : 2.40:1
Frame rate mode : Constant
Frame rate : 23.976 (24000/1001) FPS
Color space : YUV
Chroma subsampling : 4:2:0
Bit depth : 8 bits
Scan type : Progressive
Bits/(Pixel*Frame) : 0.127
Stream size : 1.07 GiB (75%)
Title : wolf1245 & MediaBit
Writing library : x264 core 157 r2958 57baac4
Encoding settings : cabac=1 / ref=11 / deblock=1:-3:-3 / analyse=0x3:0x133 / me=umh / subme=11 / psy=1 / psy_rd=1.03:0.03 / mixed_ref=1 / me_range=48 / chroma_me=1 / trellis=2 / 8x8dct=1 / cqm=0 / deadzone=21,11 / fast_pskip=0 / chroma_qp_offset=-3 / threads=10 / lookahead_threads=2 / sliced_threads=0 / nr=0 / decimate=0 / interlaced=0 / bluray_compat=0 / constrained_intra=0 / bframes=11 / b_pyramid=2 / b_adapt=2 / b_bias=0 / direct=3 / weightb=1 / open_gop=0 / weightp=2 / keyint=240 / keyint_min=24 / scenecut=40 / intra_refresh=0 / rc_lookahead=100 / rc=2pass / mbtree=0 / bitrate=1336 / ratetol=1.0 / qcomp=0.60 / qpmin=0 / qpmax=69 / qpstep=4 / cplxblur=20.0 / qblur=0.5 / vbv_maxrate=50000 / vbv_bufsize=62500 / nal_hrd=none / filler=0 / ip_ratio=1.40 / pb_ratio=1.30 / aq=2:0.80
Language : English
Default : Yes
Forced : No
Color range : Limited
Matrix coefficients : BT.709
Audio
ID : 2
Format : AC-3
Format/Info : Audio Coding 3
Commercial name : Dolby Digital
Codec ID : A_AC3
Duration : 1 h 55 min
Bit rate mode : Constant
Bit rate : 448 kb/s
Channel(s) : 6 channels
Channel layout : L R C LFE Ls Rs
Sampling rate : 48.0 kHz
Frame rate : 31.250 FPS (1536 SPF)
Compression mode : Lossy
Stream size : 369 MiB (25%)
Title : MVO | HDRezka Studio
Language : Russian
Service kind : Complete Main
Default : Yes
Forced : No
Text #1
ID : 3
Format : UTF-8
Codec ID : S_TEXT/UTF8
Codec ID/Info : UTF-8 Plain Text
Duration : 1 h 37 min
Bit rate : 0 b/s
Count of elements : 9
Stream size : 420 Bytes (0%)
Title : Forced
Language : Russian
Default : No
Forced : No
Text #2
ID : 4
Format : UTF-8
Codec ID : S_TEXT/UTF8
Codec ID/Info : UTF-8 Plain Text
Duration : 1 h 44 min
Bit rate : 51 b/s
Count of elements : 850
Stream size : 39.0 KiB (0%)
Title : Full
Language : Russian
Default : No
Forced : No
Text #3
ID : 5
Format : UTF-8
Codec ID : S_TEXT/UTF8
Codec ID/Info : UTF-8 Plain Text
Duration : 1 h 50 min
Bit rate : 30 b/s
Count of elements : 923
Stream size : 24.6 KiB (0%)
Title : Full
Language : English
Default : No
Forced : No
Text #4
ID : 6
Format : UTF-8
Codec ID : S_TEXT/UTF8
Codec ID/Info : UTF-8 Plain Text
Duration : 1 h 50 min
Bit rate : 36 b/s
Count of elements : 1150
Stream size : 29.6 KiB (0%)
Title : SDH
Language : English
Default : No
Forced : No
Menu
00:00:00.000 : :Chapter 01
00:06:29.760 : :Chapter 02
00:11:46.560 : :Chapter 03
00:18:00.960 : :Chapter 04
00:25:35.520 : :Chapter 05
00:32:42.720 : :Chapter 06
00:38:37.920 : :Chapter 07
00:46:12.960 : :Chapter 08
00:53:09.600 : :Chapter 09
00:58:12.000 : :Chapter 10
01:04:20.160 : :Chapter 11
01:10:36.479 : :Chapter 12
01:17:02.400 : :Chapter 13
01:21:31.200 : :Chapter 14
01:22:11.551 : :Chapter 16
01:29:59.060 : :Chapter 17
01:34:59.819 : :Chapter 18
01:38:52.384 : :Chapter 19
01:44:40.399 : :Chapter 20
Релиз от: & &
pb.wtf



Скачать Мулан через торрент https://c.radikal.ru/c30/2009/91/0b282cdc789f.jpg Скачать фильм Мулан через торрент бесплантно в хорошем качестве Описание: Изданный императором Китая указ о призыве на службу в армии одного мужчины из каждой семьи для защиты страны от северных ... 10 10 5
Торрент: Зарегистрирован [2020-10-31 19:12] · скачан: 98 раз
Статус: √ проверено
Размер: 1.44 GB
Как cкачать? Как скачать Мулан через торрент | UTorrent

% Раздел Тема Автор DL S | L
Фильмы 2019-2020 [DVDrip, WEB-DLRip, HDrip] (DUB, MVO) [ 753 MB ] Мулан / Mulan [2020 WEB-DLRip-AVC] [MVO] [IdeaFilm] от MediaBit Lithuania Скачать
2 | 0

28-11-2019 20:33  

Отключить всю рекламу на сайте

    Дорогой пользователь! Огромная просьба, поблагодарите релизера, оцените раздачу и оставьте свои комментарий, если Вы скачали Мулан через торрент бесплатно! Внесите свою лепту в развитие PiratBit!
    Комментировать посты могут только пользователи прошедшие не сложную регистрацию
    Показать сообщения:    

    Мулан через торрент
    Скачать бесплатно Мулан
    Мулан скачать торрент
    Мулан смотреть онлайн
    Cкачать фильм Мулан бесплатно
    Мулан скачать торрент в хорошем качестве
    Мулан смотреть онлайн бесплатно в хорошем качестве


    Вы не можете начинать темы
    Вы не можете отвечать на сообщения
    Вы не можете редактировать свои сообщения
    Вы не можете удалять свои сообщения
    Вы не можете голосовать в опросах
    Вы не можете прикреплять файлы к сообщениям
    Вы можете скачивать файлы