2 сезон

iTunes

MVO

1

2 сезон

iTunes

iTunes

1 сезон

RePack

30

Ultimate

ВАЖНО

ИГРА 18+

pack

RePack

MK11
pack

Легкие деньги

RePack

jed

RePack

fifa19

RePack

RDR2

RePack

NEED FOR SPEED™ PAYBACK

4 сезон

9 сезон

Бесстыжие 9 сезон

Все сериалы

все сериалы на PB.wtf

RePack

FAR CRY 5

Anonymous, добрый вечер, мы не успеваем собрать деньги на оплату серверов за декабрь и январь, помогите нам пожалуйста в это трудное время. В качестве благодарности мы отключим Вам всю рекламу на сайте (укажите свой ник в строку Ваше имя)!

×
  
Magnet ссылка

Игра теней / Театр теней / Shadowplay / Сезон: 1 / Серии: 1-8 из 8 (Монс Морлинд, Бьёрн Стейн) [2020, Триллер, драма, WEB-DL 1080p] MVO [Novamedia] pb.wtf

Игра теней через торрент pb.wtf

Размер: 11.3 GB | Добавлен: 2 мес. 11 д. назад | Торрент скачан:45 раз
Скачать  

01-11-2020 05:56 Игра теней Скачать торрент  

Игра теней | Театр теней | Shadowplay
Год выпуска: 2020
Страна: Канада
Студия: BRON Studios, Tandem Productions, Film United
Жанр: Триллер, драма
Продолжительность: ~ 00:55:00 серия
Перевод: Профессиональный (многоголосый) | Novamedia по заказу море тв
Субтитры: Русские (Forced) на немецкую речь (вшитые)

Режиссер: Монс Морлинд, Бьёрн Стейн

rating

В ролях: Тейлор Китч, Логан Маршалл-Грин, Нина Хосс, Максимилиан Эренрич, Таппенс Мидлтон, Себастьян Кох, Мала Эмде, Анна Ратте-Полле, Майкл С. Холл, Лена Дерри

Описание: 1946 год, Берлин все еще погружен в хаос после окончания Второй мировой войны. Чтобы помочь восстановить порядок и организовать полицейский участок, в город приезжает опытный американский детектив Макс МакЛоклин. На самом деле его миссия — поймать Вернера Гладова, местного Аль Капоне, чья банда терроризирует растерзанный войной город. Параллельно с этим Макс в тайне от начальства пытается отыскать своего пропавшего брата, который охотится на бывших нацистов, скрывающихся от правосудия. Но кто хуже нацистов? Только тот, кто им помогает.

Качество: WEB-DL 1080p
Формат: MKV

Видео: MPEG-4 AVC, ~ 3500 Кбит/с, 1920x1080
Аудио: 48.0 kHz, AC3 Dolby Digital, 2/0 (L,R) ch, ~ 192 kbps
скриншот  скриншот  скриншот  скриншот  

Общее
Уникальный идентификатор : 244213333034214356915277579407137315435 (0xB7B9C6EF6E39FAFDA61AFF4B8E4E1A6B)
Полное имя : C:\Shadowplay.S01.2020.WEB-DL.1080p.ExKinoRay\Shadowplay.S01.E01.2020.WEB-DL.1080p.ExKinoRay.mkv
Формат : Matroska
Версия формата : Version 2
Размер файла : 1,38 Гбайт
Продолжительность : 54 м. 21 с.
Общий поток : 3631 Кбит/сек
Дата кодирования : UTC 2020-10-31 22:29:39
Программа кодирования : mkvmerge v5.8.0 ('No Sleep / Pillow') built on Sep 2 2012 15:37:04
Библиотека кодирования : libebml v1.2.3 + libmatroska v1.3.0

Видео
Идентификатор : 1
Формат : AVC
Формат/Информация : Advanced Video Codec
Профиль формата : High@L4.1
Настройки формата : CABAC / 5 Ref Frames
Параметр CABAC формата : Да
Параметр RefFrames формата : 5 кадров
Идентификатор кодека : V_MPEG4/ISO/AVC
Продолжительность : 54 м. 21 с.
Битрейт : 3367 Кбит/сек
Ширина : 1920 пикселей
Высота : 1080 пикселей
Соотношение сторон : 16:9
Режим частоты кадров : Постоянный
Частота кадров : 25,000 кадров/сек
Цветовое пространство : YUV
Субдискретизация насыщенности : 4:2:0
Битовая глубина : 8 бит
Тип развёртки : Прогрессивная
Бит/(Пиксели*Кадры) : 0.065
Размер потока : 1,28 Гбайт (93%)
Язык : English
Default : Да
Forced : Нет
Цветовой диапазон : Limited
Основные цвета : BT.709
Характеристики трансфера : BT.709
Коэффициенты матрицы : BT.709

Аудио
Идентификатор : 2
Формат : AC-3
Формат/Информация : Audio Coding 3
Коммерческое название : Dolby Digital
Идентификатор кодека : A_AC3
Продолжительность : 54 м. 21 с.
Вид битрейта : Постоянный
Битрейт : 192 Кбит/сек
Каналы : 2 канала
ChannelLayout : L R
Частота : 48,0 КГц
Частота кадров : 31,250 кадров/сек (1536 SPF)
Битовая глубина : 16 бит
Метод сжатия : С потерями
Размер потока : 74,7 Мбайт (5%)
Язык : Russian
ServiceKind/String : Complete Main
Default : Да
Forced : Нет

Когда раздача ведётся путём добавления новых серий, при каждом добавлении создётся новый торрент. Чтобы начать докачку новой серии, пользователям необходимо сделать следующее:
(1) остановить скачивание,
(2) удалить старый торрент у себя из клиента (старые серии удалять не надо),
(3) скачать новый торрент и запустить его у себя в клиенте вместо старого, при этом указать клиенту путь в старую папку, куда и должно происходить скачивание новых серий.
Ваш клиент при этом должен произвести хеширование (проверку) старой папки (если не производит сам - помогите ему сделать это), и будет докачивать только те серии, которых у вас ещё нет. Старые серии при этом не удаляются, а продолжают раздаваться!
Eсли вы уже удалили старые серии, то предотвратить повторную закачку старых серий можно, отжав галочку в соответсвующих местах при запуске нового торрента. По возможности, желательно не удалять старые серии как можно дольше, чтобы релизёр не столько продолжал раздавать старые серии, а смог сконцентрироваться на новых.

pb.wtf



Скачать Игра теней через торрент https://b.radikal.ru/b25/2010/16/2bd976a3ff0d.jpg Скачать фильм Игра теней через торрент бесплантно в хорошем качестве Описание: 1946 год, Берлин все еще погружен в хаос после окончания Второй мировой войны. Чтобы помочь восстановить порядок и организовать ... 10 10 4
Торрент: Зарегистрирован [2020-11-03 16:22] · скачан: 45 раз
Статус: √ проверено
Размер: 11.3 GB
Как cкачать? Как скачать Игра теней через торрент | UTorrent

% Раздел Тема Автор DL S | L
Зарубежные сериалы [ 5.95 GB ] Игра теней / Театр теней / Shadowplay / Сезон: 1 / Серии: 1-8 из 8 [2020 WEB-DLRip-AVC] MVO [Novamedia] GEKADOL Скачать
2 | 0

28-11-2019 20:33  

Отключить всю рекламу на сайте

    Дорогой пользователь! Огромная просьба, поблагодарите релизера, оцените раздачу и оставьте свои комментарий, если Вы скачали Игра теней через торрент бесплатно! Внесите свою лепту в развитие PiratBit!
    Комментировать посты могут только пользователи прошедшие не сложную регистрацию
    Показать сообщения:    

    Игра теней через торрент
    Скачать бесплатно Игра теней
    Игра теней скачать торрент
    Игра теней смотреть онлайн
    Cкачать фильм Игра теней бесплатно
    Игра теней скачать торрент в хорошем качестве
    Игра теней смотреть онлайн бесплатно в хорошем качестве


    Вы не можете начинать темы
    Вы не можете отвечать на сообщения
    Вы не можете редактировать свои сообщения
    Вы не можете удалять свои сообщения
    Вы не можете голосовать в опросах
    Вы не можете прикреплять файлы к сообщениям
    Вы можете скачивать файлы