2 сезон

iTunes

MVO

1

2 сезон

iTunes

iTunes

1 сезон

RePack

30

Новинка

ВАЖНО

ИГРА 18+

pack

RePack

MK11
pack

Легкие деньги

RePack

jed

RePack

fifa19

RePack

RDR2

RePack

NEED FOR SPEED™ PAYBACK

4 сезон

9 сезон

Бесстыжие 9 сезон

Все сериалы

все сериалы на PB.wtf

RePack

FAR CRY 5

Anonymous, добрый день, мы не успеваем собрать деньги на оплату серверов за декабрь и январь, помогите нам пожалуйста в это трудное время. В качестве благодарности мы отключим Вам всю рекламу на сайте (укажите свой ник в строку Ваше имя)!

×
  
Magnet ссылка

Операция «Колибри» / The Hummingbird Project (Ким Нгуйен) [2018 г., Триллер, BDRip 720p / 60 FPS, Профессиональный (многоголосый)] от R.G. HD-Films pb.wtf

Операция «Колибри» через торрент pb.wtf

Размер: 3.26 GB | Добавлен: 2 мес. 23 д. назад | Торрент скачан:76 раз
Скачать  

01-11-2020 12:03 Операция «Колибри» Скачать торрент  

Операция «Колибри» / The Hummingbird Project
Год выпуска: 2018
Страна: Бельгия, Канада
Жанр: Триллер
Продолжительность: 01:50:37
Перевод: Профессиональный (многоголосый) [ СВ Студия ]

Режиссер: Ким Нгуйен

Премьера в мире: 8 сентября 2018

rating

В ролях: Джесси Айзенберг, Александр Скарсгард, Сальма Хайек, Майкл Мэндо, Йохан Хелденберг, Аиша Исса, Марк Слэк, Сара Голдберг, Фрэнк Скорпион, Кваси Сонгуи

Описание: Двоюродные братья Винсент и Антон живут в мире высокочастотного трейдинга, где каждая миллисекунда может стоить миллиарды. Они решаются реализовать давно задуманный проект. Казалось бы, все продумано до мелочей и шансы на успех велики как никогда. Однако на пути братьев встает их бывший босс Эва Торрес - беспринципный злой гений, ставшая их заклятым врагом. Ставки высоки, проигравший теряет всё или, наоборот, приобретает нечто большее, поистине бесценное.

Качество: BDRip 720p / 60 FPS
Формат: MKV
Видео кодек: H.264
Аудио кодек: AC3
Видео: x264, 1280 x 544 ( 2,35:1 ), 3834 kbps, 60,000 fps, ( 0.092 bpp)
Аудио#1: Русский, AC-3, 48.0 KHz, 6 ch, 384 Kbps MVO [ СВ Студия ]
Релиз от: Автор рипа: slaventi-69
x264 [info]: frame I:1378 Avg QP:15.70 size: 76460
x264 [info]: frame P:104462 Avg QP:16.75 size: 16617
x264 [info]: frame B:291606 Avg QP:18.57 size: 4572
x264 [info]: consecutive B-frames: 2.6% 3.7% 12.1% 42.5% 30.8% 8.3%


Общее
Уникальный идентификатор : 241045964196219955163467675489652428080 (0xB557C39840506653BDF63CBFB56FCD30)
Полное имя : F:\The.Hummingbird.Project.(2018).BDRip.720p.(60 Fps).mkv
Формат : Matroska
Версия формата : Version 4
Размер файла : 3,26 Гбайт
Продолжительность : 1 ч. 50 м.
Общий поток : 4221 Кбит/сек
Название фильма : Операция «Колибри»/ The Hummingbird Project (2018) BDRip 720p (60 Fps)
Дата кодирования : UTC 2020-10-19 13:36:30
Программа кодирования : mkvmerge v9.1.0 ('Little Earthquakes') 64bit
Библиотека кодирования : libebml v1.3.3 + libmatroska v1.4.4

Видео
Идентификатор : 1
Формат : AVC
Формат/Информация : Advanced Video Codec
Профиль формата : High@L4.1
Настройки формата : CABAC / 9 Ref Frames
Параметр CABAC формата : Да
Параметр RefFrames формата : 9 кадров
Идентификатор кодека : V_MPEG4/ISO/AVC
Продолжительность : 1 ч. 50 м.
Битрейт : 3834 Кбит/сек
Ширина : 1280 пикселей
Высота : 544 пикселя
Соотношение сторон : 2,35:1
Режим частоты кадров : Постоянный
Частота кадров : 60,000 кадров/сек
Цветовое пространство : YUV
Субдискретизация насыщенности : 4:2:0
Битовая глубина : 8 бит
Тип развёртки : Прогрессивная
Бит/(Пиксели*Кадры) : 0.092
Размер потока : 2,96 Гбайт (91%)
Заголовок : slaventi-69 ( R.G. HD-Films | 60 fps )
Библиотека кодирования : x264 core 130 r2273 b3065e6
Настройки программы : cabac=1 / ref=9 / deblock=1:-1:-1 / analyse=0x3:0x113 / me=umh / subme=9 / psy=1 / psy_rd=1.00:0.00 / mixed_ref=1 / me_range=32 / chroma_me=1 / trellis=2 / 8x8dct=1 / cqm=0 / deadzone=21,11 / fast_pskip=0 / chroma_qp_offset=-2 / threads=10 / lookahead_threads=4 / sliced_threads=0 / nr=0 / decimate=1 / interlaced=0 / bluray_compat=0 / constrained_intra=0 / bframes=5 / b_pyramid=2 / b_adapt=2 / b_bias=0 / direct=2 / weightb=1 / open_gop=0 / weightp=2 / keyint=600 / keyint_min=23 / scenecut=40 / intra_refresh=0 / rc=crf / mbtree=0 / crf=17.0 / qcomp=0.60 / qpmin=0 / qpmax=69 / qpstep=4 / ip_ratio=1.40 / pb_ratio=1.30 / aq=1:1.00
Язык : English
Default : Да
Forced : Нет

Аудио
Идентификатор : 2
Формат : AC-3
Формат/Информация : Audio Coding 3
Коммерческое название : Dolby Digital
Идентификатор кодека : A_AC3
Продолжительность : 1 ч. 50 м.
Вид битрейта : Постоянный
Битрейт : 384 Кбит/сек
Каналы : 6 каналов
Channel layout : L R C LFE Ls Rs
Частота : 48,0 КГц
Частота кадров : 31,250 кадров/сек (1536 SPF)
Битовая глубина : 16 бит
Метод сжатия : С потерями
Размер потока : 303 Мбайт (9%)
Заголовок : MVO [ СВ Студия ]
Язык : Russian
ServiceKind/String : Complete Main
Default : Да
Forced : Нет

Меню
00:00:00.000 : en:Глава 01
00:09:59.265 : en:Глава 02
00:20:45.703 : en:Глава 03
00:30:31.329 : en:Глава 04
00:40:32.555 : en:Глава 05
00:50:20.684 : en:Глава 06
01:00:52.357 : en:Глава 07
01:10:05.326 : en:Глава 08
01:19:56.333 : en:Глава 09
01:29:57.892 : en:Глава 10
01:39:37.555 : en:Глава 11

Просьба к переливающим на другие сайты, в оформлении указывайте пожалуйста авторство группы R.G. HD-Films pb.wtf



Скачать Операция «Колибри» через торрент https://img15.lostpic.net/2019/10/31/16d01dca729fb55ecf6bb6d4005837a4.jpg Скачать фильм Операция «Колибри» через торрент бесплантно в хорошем качестве Описание: Двоюродные братья Винсент и Антон живут в мире высокочастотного трейдинга, где каждая миллисекунда может стоить миллиарды. Они ... 10 10 3
Торрент: Зарегистрирован [2020-11-01 12:03] · скачан: 76 раз
Статус: √ проверено
Размер: 3.26 GB
Как cкачать? Как скачать Операция «Колибри» через торрент | UTorrent

28-11-2019 20:33  

Отключить всю рекламу на сайте

    Дорогой пользователь! Огромная просьба, поблагодарите релизера, оцените раздачу и оставьте свои комментарий, если Вы скачали Операция «Колибри» через торрент бесплатно! Внесите свою лепту в развитие PiratBit!
    Комментировать посты могут только пользователи прошедшие не сложную регистрацию
    Показать сообщения:    

    Операция «Колибри» через торрент
    Скачать бесплатно Операция «Колибри»
    Операция «Колибри» скачать торрент
    Операция «Колибри» смотреть онлайн
    Cкачать фильм Операция «Колибри» бесплатно
    Операция «Колибри» скачать торрент в хорошем качестве
    Операция «Колибри» смотреть онлайн бесплатно в хорошем качестве


    Вы не можете начинать темы
    Вы не можете отвечать на сообщения
    Вы не можете редактировать свои сообщения
    Вы не можете удалять свои сообщения
    Вы не можете голосовать в опросах
    Вы не можете прикреплять файлы к сообщениям
    Вы можете скачивать файлы