2 сезон

iTunes

MVO

1

2 сезон

iTunes

iTunes

1 сезон

RePack

30

Ultimate

ВАЖНО

ИГРА 18+

pack

RePack

MK11
pack

Легкие деньги

RePack

jed

RePack

fifa19

RePack

RDR2

RePack

NEED FOR SPEED™ PAYBACK

4 сезон

9 сезон

Бесстыжие 9 сезон

Все сериалы

все сериалы на PB.wtf

RePack

FAR CRY 5

Anonymous, добрый вечер, мы не успеваем собрать деньги на оплату серверов за декабрь и январь, помогите нам пожалуйста в это трудное время. В качестве благодарности мы отключим Вам всю рекламу на сайте (укажите свой ник в строку Ваше имя)!

×
  
Magnet ссылка

Борат 2 / Borat Subsequent Moviefilm (Джейсон Уолинер) [2020, сатира, комедия, розыгрыш, WEB-DL 2160p SDR] [MVO] (HDRezka Studio) + [DVO] (Кубик в Кубе) pb.wtf

Борат 2 через торрент pb.wtf

Раздают: 1 [ 0 KB/s ]
Размер: 19.96 GB | Добавлен: 2 мес. 17 д. назад | Торрент скачан:100 раз
Скачать  

01-11-2020 15:30 Борат 2 Скачать торрент  

Борат 2 / Борат: последующий кинофильм
Borat Subsequent Moviefilm / Borat: Gift of Pornographic Monkey to Viсе Premiere Mikhael Pence to Make Benefit Recently Diminished Nation of Kazakhstan
Год выпуска: 2020
Страна: Великобритания, США
Студия: Amazon originals
Жанр: сатира, комедия, розыгрыш
Продолжительность: 01:36:04
Перевод: Профессиональный (многоголосый закадровый) HDRezka Studio
Перевод 2: Профессиональный (двухголосый закадровый) Кубик в Кубе
Субтитры: русские, английские

Режиссер: Джейсон Уолинер

В ролях: Саша Барон Коэн, Мария Бакалова, Том Хэнкс, Дэни Попеску

Описание: За 14 лет журналист Борат Сагдиев стал звездой Казахстана и теперь решает показать дочери прелести американской жизни, а заодно и выдать её замуж.
rating
Сэмпл

Тип релиза: WEB-DL 2160p SDR
Контейнер: MKV

Видео: HEVC, 3840x2160p, 16:9, 28.2 Mb/s, 23.976 FPS
Аудио 1 [RUS]: AC-3, 6 ch, 48.0 kHz, 448 kb/s | [HDRezka Studio]
Аудио 2 [RUS]: AC-3, 6 ch, 48.0 kHz, 448 kb/s | [Кубик в Кубе]
Аудио 3 [ENG]: E-AC-3, 6 ch, 48.0 kHz, 640 kb/s
Cубтитры 1 [RUS]: Forced в связке с HDRezka Studio
Cубтитры 2 [RUS]: Forced в связке с Кубик в Кубе
Cубтитры 3 [RUS]: Полные
Cубтитры 4 [ENG]: Полные (SDH)

Реклама: нет
Format                      : Matroska
Format version : Version 4
File size : 20.0 GiB
Duration : 1 h 36 min
Overall bit rate : 29.7 Mb/s
Encoded date : UTC 2020-11-01 13:11:22
Writing application : mkvmerge v51.0.0 ('I Wish') 64-bit
Writing library : libebml v1.4.0 + libmatroska v1.6.2
Cover : Yes
Attachments : cover.png

Video
ID : 1
Format : HEVC
Format/Info : High Efficiency Video Coding
Format profile : Main 10@L5.1@High
Codec ID : V_MPEGH/ISO/HEVC
Duration : 1 h 36 min
Bit rate : 28.2 Mb/s
Width : 3 840 pixels
Height : 2 160 pixels
Display aspect ratio : 16:9
Frame rate mode : Constant
Frame rate : 23.976 (24000/1001) FPS
Color space : YUV
Chroma subsampling : 4:2:0
Bit depth : 10 bits
Bits/(Pixel*Frame) : 0.142
Stream size : 18.9 GiB (95%)
Writing library : x265 3.4+26-ga82c6c7a7:[Windows][GCC 10.2.1][64 bit] 10bit
Encoding settings : cpuid=1111039 / frame-threads=3 / numa-pools=12 / wpp / no-pmode / no-pme / no-psnr / no-ssim / log-level=2 / input-csp=1 / input-res=3840x2160 / interlace=0 / total-frames=138213 / level-idc=51 / high-tier=1 / uhd-bd=0 / ref=5 / no-allow-non-conformance / repeat-headers / annexb / aud / hrd / info / hash=0 / no-temporal-layers / open-gop / min-keyint=23 / keyint=250 / gop-lookahead=0 / bframes=8 / b-adapt=2 / b-pyramid / bframe-bias=0 / rc-lookahead=40 / lookahead-slices=8 / scenecut=40 / hist-scenecut=0 / radl=0 / no-splice / no-intra-refresh / ctu=64 / min-cu-size=8 / no-rect / no-amp / max-tu-size=32 / tu-inter-depth=4 / tu-intra-depth=4 / limit-tu=4 / rdoq-level=0 / dynamic-rd=0.00 / no-ssim-rd / signhide / no-tskip / nr-intra=0 / nr-inter=0 / no-constrained-intra / strong-intra-smoothing / max-merge=4 / limit-refs=1 / no-limit-modes / me=1 / subme=5 / merange=57 / temporal-mvp / no-frame-dup / no-hme / weightp / weightb / no-analyze-src-pics / deblock=-3:-3 / no-sao / no-sao-non-deblock / rd=4 / selective-sao=0 / early-skip / rskip / no-fast-intra / no-tskip-fast / no-cu-lossless / b-intra / no-splitrd-skip / rdpenalty=0 / psy-rd=2.00 / psy-rdoq=0.00 / no-rd-refine / no-lossless / cbqpoffs=0 / crqpoffs=0 / rc=crf / crf=18.0 / qcomp=0.60 / qpstep=4 / stats-write=0 / stats-read=0 / vbv-maxrate=160000 / vbv-bufsize=160000 / vbv-init=0.9 / min-vbv-fullness=50.0 / max-vbv-fullness=80.0 / crf-max=0.0 / crf-min=0.0 / ipratio=1.30 / pbratio=1.20 / aq-mode=1 / aq-strength=0.80 / no-cutree / zone-count=0 / no-strict-cbr / qg-size=32 / no-rc-grain / qpmax=69 / qpmin=0 / no-const-vbv / sar=1 / overscan=0 / videoformat=5 / range=0 / colorprim=1 / transfer=1 / colormatrix=1 / chromaloc=0 / display-window=0 / cll=0,0 / min-luma=0 / max-luma=1023 / log2-max-poc-lsb=8 / vui-timing-info / vui-hrd-info / slices=1 / no-opt-qp-pps / no-opt-ref-list-length-pps / no-multi-pass-opt-rps / scenecut-bias=0.05 / hist-threshold=0.03 / no-opt-cu-delta-qp / no-aq-motion / no-hdr10 / no-hdr10-opt / no-dhdr10-opt / no-idr-recovery-sei / analysis-reuse-level=0 / analysis-save-reuse-level=0 / analysis-load-reuse-level=0 / scale-factor=0 / refine-intra=0 / refine-inter=0 / refine-mv=1 / refine-ctu-distortion=0 / no-limit-sao / ctu-info=0 / no-lowpass-dct / refine-analysis-type=0 / copy-pic=1 / max-ausize-factor=1.0 / no-dynamic-refine / no-single-sei / no-hevc-aq / no-svt / no-field / qp-adaptation-range=1.00 / no-scenecut-aware-qpconformance-window-offsets / right=0 / bottom=0 / decoder-max-rate=0 / no-vbv-live-multi-pass
Language : English
Default : Yes
Forced : No
Color range : Limited
Color primaries : BT.709
Transfer characteristics : BT.709
Matrix coefficients : BT.709

Audio #1
ID : 2
Format : AC-3
Format/Info : Audio Coding 3
Commercial name : Dolby Digital
Codec ID : A_AC3
Duration : 1 h 36 min
Bit rate mode : Constant
Bit rate : 448 kb/s
Channel(s) : 6 channels
Channel layout : L R C LFE Ls Rs
Sampling rate : 48.0 kHz
Frame rate : 31.250 FPS (1536 SPF)
Compression mode : Lossy
Stream size : 308 MiB (2%)
Title : HDRezka Studio
Language : Russian
Service kind : Complete Main
Default : Yes
Forced : No

Audio #2
ID : 3
Format : AC-3
Format/Info : Audio Coding 3
Commercial name : Dolby Digital
Codec ID : A_AC3
Duration : 1 h 36 min
Bit rate mode : Constant
Bit rate : 448 kb/s
Channel(s) : 6 channels
Channel layout : L R C LFE Ls Rs
Sampling rate : 48.0 kHz
Frame rate : 31.250 FPS (1536 SPF)
Compression mode : Lossy
Stream size : 308 MiB (2%)
Title : Кубик в Кубе
Language : Russian
Service kind : Complete Main
Default : No
Forced : No

Audio #3
ID : 4
Format : E-AC-3
Format/Info : Enhanced AC-3
Commercial name : Dolby Digital Plus
Codec ID : A_EAC3
Duration : 1 h 36 min
Bit rate mode : Constant
Bit rate : 640 kb/s
Channel(s) : 6 channels
Channel layout : L R C LFE Ls Rs
Sampling rate : 48.0 kHz
Frame rate : 31.250 FPS (1536 SPF)
Compression mode : Lossy
Stream size : 440 MiB (2%)
Language : English
Service kind : Complete Main
Default : No
Forced : No

Text #1
ID : 5
Format : UTF-8
Codec ID : S_TEXT/UTF8
Codec ID/Info : UTF-8 Plain Text
Duration : 1 h 35 min
Bit rate : 23 b/s
Count of elements : 363
Stream size : 16.3 KiB (0%)
Title : Forced в связке с HDRezka Studio
Language : Russian
Default : Yes
Forced : No

Text #2
ID : 6
Format : UTF-8
Codec ID : S_TEXT/UTF8
Codec ID/Info : UTF-8 Plain Text
Duration : 1 h 28 min
Bit rate : 17 b/s
Count of elements : 258
Stream size : 11.2 KiB (0%)
Title : Forced в связке с Кубик в Кубе
Language : Russian
Default : No
Forced : No

Text #3
ID : 7
Format : UTF-8
Codec ID : S_TEXT/UTF8
Codec ID/Info : UTF-8 Plain Text
Duration : 1 h 35 min
Bit rate : 111 b/s
Count of elements : 1549
Stream size : 77.9 KiB (0%)
Language : Russian
Default : No
Forced : No

Text #4
ID : 8
Format : UTF-8
Codec ID : S_TEXT/UTF8
Codec ID/Info : UTF-8 Plain Text
Duration : 1 h 35 min
Bit rate : 86 b/s
Count of elements : 1953
Stream size : 60.7 KiB (0%)
Title : SDH
Language : English
Default : No
Forced : No

Menu
00:00:00.000 : en:Amazon Original
00:00:06.000 : en:Scene 2
01:03:45.000 : en:Scene 3
01:04:28.000 : en:Scene 4
01:30:17.000 : en:Acknowledgement
01:30:24.000 : en:End Credits
скриншот  скриншот  скриншот  
pb.wtf



Скачать Борат 2 через торрент https://i114.fastpic.ru/big/2020/1101/2f/fd8d98d50a47f3c754fc918fd091272f.png Скачать фильм Борат 2 через торрент бесплантно в хорошем качестве Описание: За 14 лет журналист Борат Сагдиев стал звездой Казахстана и теперь решает показать дочери прелести американской жизни, а заодно и ... 9.2 10 6
Торрент: Зарегистрирован [2020-11-01 15:30] · скачан: 100 раз
Статус: √ проверено
Размер: 19.96 GB
Как cкачать? Как скачать Борат 2 через торрент | UTorrent

% Раздел Тема Автор DL S | L
Фильмы (WEB-DL 720p, 1080p) [ 9.53 GB ] Борат 2 / Borat Subsequent Moviefilm [2020 WEB-DL 1080p] DVO [Кубик в Кубе] bober100 Скачать
6 | 0
Фильмы 2019-2020 [DVDrip, WEB-DLRip, HDrip] (DUB, MVO) [ 1.47 GB ] Борат 2 / Borat Subsequent Moviefilm [2020 WEB-DLRip] MVO [HDRezka Studio] Twi7ter Скачать
49 | 0
Фильмы (WEB-DL 720p, 1080p) [ 9.92 GB ] Борат 2 / Borat Subsequent Moviefilm [2020 WEB-DL 1080p] MVO [FocusX] bober100 Скачать
3 | 0
Фильмы 2019-2020 [DVDrip, WEB-DLRip, HDrip] (DUB, MVO) [ 1.46 GB ] Борат 2 / Borat Subsequent Moviefilm [2020 WEB-DLRip] MVO [HDRezka Studio] bober100 Скачать
7 | 0
Фильмы 2019-2020 [DVDrip, WEB-DLRip, HDrip] (DUB, MVO) [ 1.47 GB ] Борат 2 / Borat Subsequent Moviefilm [2020 WEB-DLRip] MVO [FocusX] Twi7ter Скачать
220 | 3
Фильмы с украинским озвучиванием [ 1.48 GB ] Борат 2 / Borat Subsequent Moviefilm / Borat: Gift of Pornographic Monkey to Viсе Premiere Mikhael Pence to Make Benefit Recently Diminished Nation of Kazakhstan [2020 WEBRip-AVC] [Ukr MVO] killermax2013 Скачать
2 | 0
Фильмы без перевода [ 1.46 GB ] Борат 2 / Borat Subsequent Moviefilm / Borat: Gift of Pornographic Monkey to Vice Premiere Mikhael Pence to Make Benefit Recently Diminished Nation of Kazakhstan [2020 WEB-DLRip] [Sub] killermax2013 Скачать
1 | 0

28-11-2019 20:33  

Отключить всю рекламу на сайте

    Дорогой пользователь! Огромная просьба, поблагодарите релизера, оцените раздачу и оставьте свои комментарий, если Вы скачали Борат 2 через торрент бесплатно! Внесите свою лепту в развитие PiratBit!
    Комментировать посты могут только пользователи прошедшие не сложную регистрацию
    Показать сообщения:    

    Борат 2 через торрент
    Скачать бесплатно Борат 2
    Борат 2 скачать торрент
    Борат 2 смотреть онлайн
    Cкачать фильм Борат 2 бесплатно
    Борат 2 скачать торрент в хорошем качестве
    Борат 2 смотреть онлайн бесплатно в хорошем качестве


    Вы не можете начинать темы
    Вы не можете отвечать на сообщения
    Вы не можете редактировать свои сообщения
    Вы не можете удалять свои сообщения
    Вы не можете голосовать в опросах
    Вы не можете прикреплять файлы к сообщениям
    Вы можете скачивать файлы