Достать ножи: Стеклянная луковица

MVO

Добыча

Дубляж

Уэнсдэй

1 сезон

Тор

Дубляж

13 клиническая

1 сезон

Жестокая ночь

MVO

Одни из нас

1 сезон

Deluxe

pack

Рекомендуем

30

Пиратка

ВАЖНО

ВАЖНО

Ghostwire

Пиратка

jed

RePack

nioh2

RePack

RDR2

RePack

NEED FOR SPEED™ PAYBACK

RePack

скачать торрент

Кинопоиск HD

Острые козырьки 6 сезон

6 сезон

FAR CRY 6

RePack

скачать торрент

Лицензия

скачать торрент

MVO

1

1 сезон

скачать торрент

1 сезон

скачать торрент

Лицензия

  

Чистая кожа / Cleanskin (Хади Хаджэйг) [2012, Боевик, триллер, драма, криминал, BDRip 1080p] MVO [SDI Media]

Чистая кожа через торрент pb.wtf

Размер: 12.14 GB | Добавлен: 2 года 2 мес. назад | Торрент скачан:26 раз
Смотреть онлайн | Скачать | Поддержите нас   

01-11-2020 17:01 Чистая кожа Скачать торрент  

Чистая кожа | Cleanskin
Год выпуска: 2012
Страна: Великобритания
Выпущено: UK Film Studio, The
Жанр: Боевик, триллер, драма, криминал
Продолжительность: 01:47:50
Перевод: Профессиональный (многоголосый) | SDI Media
Субтитры: Русские (Full), английские (SDH)

Режиссер: Хади Хаджэйг

rating

В ролях: Шон Бин, Шарлотта Рэмплинг, Абин Галейя, Том Бёрк, Таппенс Мидлтон, Питер Поликарпу, Сайлас Карсон, Джеймс Фокс, Мишель Райан, Сэм Дуглас и др.

Описание: Эван - тайный правительственный агент, перед которым стоит задача выследить и ликвидировать террориста-смертника Эша и его террористическую ячейку. В то время как Эван идет по следу преступников, Эш борется с сомнениями и пытается разобраться, как и почему он пришел к терроризму.

Качество: BDRip 1080p
Формат: MKV

Видео: MPEG-4 AVC, 15.2 Mb/s, 1920x800
Аудио #1 Russian: 48 kHz, AC3 Dolby Digital, 2/0 (L, R) ch, ~256 Kbps | SDI Media
Аудио #2 English: 48 kHz, AC3 Dolby Digital, 3/2 (L, C, R, l, r) + LFE ch, ~640 Kbps | Original
скриншот  скриншот  скриншот  скриншот  

Complete name : Chistaya.kozha.2012.1080p BluRay.ELEKTRI4KA.UNIONGANG.mkv
Format : Matroska
Format version : Version 4 / Version 2
File size : 12.1 GiB
Duration : 1 h 47 min
Overall bit rate : 16.1 Mb/s
Movie name : .ELEKTRI4KA.UNIONGANG.
Encoded date : UTC 2020-11-01 11:19:39
Writing application : mkvmerge v8.3.0 ('Over the Horizon') 64bit
Writing library : libebml v1.3.1 + libmatroska v1.4.2

Video
ID : 1
Format : AVC
Format/Info : Advanced Video Codec
Format profile : [email protected]
Format settings, CABAC : Yes
Format settings, Reference frames : 4 frames
Codec ID : V_MPEG4/ISO/AVC
Duration : 1 h 47 min
Bit rate : 15.2 Mb/s
Width : 1 920 pixels
Height : 800 pixels
Display aspect ratio : 2.40:1
Frame rate mode : Constant
Frame rate : 23.976 (24000/1001) FPS
Color space : YUV
Chroma subsampling : 4:2:0
Bit depth : 8 bits
Scan type : Progressive
Bits/(Pixel*Frame) : 0.413
Stream size : 11.5 GiB (94%)
Writing library : x264 core 125 r2200 999b753
Encoding settings : cabac=1 / ref=4 / deblock=1:-2:-2 / analyse=0x3:0x113 / me=umh / subme=8 / psy=1 / psy_rd=1.03:0.12 / mixed_ref=0 / me_range=32 / chroma_me=1 / trellis=2 / 8x8dct=1 / cqm=0 / deadzone=21,11 / fast_pskip=0 / chroma_qp_offset=-1 / threads=6 / lookahead_threads=1 / sliced_threads=0 / nr=0 / decimate=0 / interlaced=0 / bluray_compat=0 / constrained_intra=0 / bframes=8 / b_pyramid=2 / b_adapt=2 / b_bias=0 / direct=2 / weightb=1 / open_gop=0 / weightp=2 / keyint=240 / keyint_min=22 / scenecut=40 / intra_refresh=0 / rc_lookahead=40 / rc=crf / mbtree=1 / crf=18.0 / qcomp=0.60 / qpmin=0 / qpmax=51 / qpstep=4 / vbv_maxrate=38000 / vbv_bufsize=30000 / crf_max=0.0 / nal_hrd=none / ip_ratio=1.40 / aq=1:1.10
Language : English
Default : Yes
Forced : No
Color range : Limited
Matrix coefficients : BT.709

Audio #1
ID : 2
Format : AC-3
Format/Info : Audio Coding 3
Mode extension : CM (complete main)
Format settings, Endianness : Big
Codec ID : A_AC3
Duration : 1 h 47 min
Bit rate mode : Constant
Bit rate : 256 kb/s
Channel(s) : 2 channels
Channel positions : Front: L R
Sampling rate : 48.0 kHz
Frame rate : 31.250 FPS (1536 spf)
Bit depth : 16 bits
Compression mode : Lossy
Stream size : 197 MiB (2%)
Title : IVI
Language : Russian
Default : Yes
Forced : No

Audio #2
ID : 3
Format : AC-3
Format/Info : Audio Coding 3
Mode extension : CM (complete main)
Format settings, Endianness : Big
Codec ID : A_AC3
Duration : 1 h 47 min
Bit rate mode : Constant
Bit rate : 640 kb/s
Channel(s) : 6 channels
Channel positions : Front: L C R, Side: L R, LFE
Sampling rate : 48.0 kHz
Frame rate : 31.250 FPS (1536 spf)
Bit depth : 16 bits
Compression mode : Lossy
Stream size : 494 MiB (4%)
Title : Original
Language : English
Default : No
Forced : No

Text #1
ID : 4
Format : UTF-8
Codec ID : S_TEXT/UTF8
Codec ID/Info : UTF-8 Plain Text
Duration : 1 h 41 min
Bit rate : 77 b/s
Count of elements : 1012
Stream size : 57.9 KiB (0%)
Title : Full
Language : Russian
Default : Yes
Forced : No

Text #2
ID : 5
Format : UTF-8
Codec ID : S_TEXT/UTF8
Codec ID/Info : UTF-8 Plain Text
Duration : 1 h 41 min
Bit rate : 50 b/s
Count of elements : 1140
Stream size : 37.2 KiB (0%)
Title : SDH
Language : English
Default : No
Forced : No

Menu
00:00:00.000 : en:00:00:00.000
00:10:58.616 : en:00:10:58.616
00:18:38.617 : en:00:18:38.617
00:28:52.898 : en:00:28:52.898
00:37:56.608 : en:00:37:56.608
00:45:34.231 : en:00:45:34.231
00:54:02.698 : en:00:54:02.698
01:04:36.790 : en:01:04:36.790
01:13:34.702 : en:01:13:34.702
01:24:15.842 : en:01:24:15.842
01:32:32.213 : en:01:32:32.213
01:38:57.098 : en:01:38:57.098




Скачать Чистая кожа через торрент https://i114.fastpic.ru/big/2020/1101/a7/2085a274628c16435f5787b09a9254a7.png Скачать, смотреть онлайн Чистая кожа бесплантно в хорошем качестве Описание: Эван - тайный правительственный агент, перед которым стоит задача выследить и ликвидировать террориста-смертника Эша и его ... 9.6 10 5
Торрент: Зарегистрирован [2020-11-01 17:01] · скачан: 26 раз
Статус: T временная
Размер: 12.14 GB
Как cкачать? Как скачать Чистая кожа через торрент | UTorrent

% Раздел Тема Автор DL S | L
Фильмы [HD 720p, 1080p] (Хороший звук DUB, MVO) [ 7.39 GB ] Чистая кожа / Cleanskin | MVO | 720p bober100 Скачать
1 | 0
Фильмы 2012 [ 1.46 GB ] Чистая кожа / Cleanskin | MVO | HDRip bober100 Скачать
2 | 0
Фильмы с авторской озвучкой [ 1.46 GB ] Чистая кожа / Cleanskin | | HDRip, Авторский одноголосый (Антон Карповский coc900 Скачать
1 | 0
Фильмы 2012 [ 1.37 GB ] Чистая кожа / Cleanskin | | HDRip,Профессиональный (многоголосый, закадровый Ворон Скачать
1 | 0
Фильмы 2012 [ 1.46 GB ] Чистая кожа / Cleanskin | | HDRip Mr. Freeman Скачать
1 | 0

28-11-2019 20:33  


Отключить вcю реклaмy на сайте, в т.ч. и в плеере онлайн просмотра!

    Дорогой пользователь! Огромная просьба, поблагодарите релизера, оцените раздачу и оставьте свои комментарий, если Вы скачали Чистая кожа через торрент бесплатно!!
    Комментировать посты могут только пользователи прошедшие не сложную регистрацию
    Показать сообщения:    


    Чистая кожа через торрент
    Скачать бесплатно Чистая кожа
    Чистая кожа скачать торрент
    Чистая кожа смотреть онлайн
    Cкачать фильм Чистая кожа бесплатно
    Чистая кожа скачать торрент в хорошем качестве
    Чистая кожа смотреть онлайн бесплатно в хорошем качестве
    Вы не можете начинать темы
    Вы не можете отвечать на сообщения
    Вы не можете редактировать свои сообщения
    Вы не можете удалять свои сообщения
    Вы не можете голосовать в опросах
    Вы не можете прикреплять файлы к сообщениям
    Вы можете скачивать файлы
    Чистая кожа / Cleanskin [2012, Боевик, триллер, драма, криминал, BDRip 1080p] MVO [SDI Media] смотреть онлайн, скачать торрент picoco.icu