Всегда рабочее зеркало без VPN и Proxy просто перед .vidak.icu напиши любое слово или цифру, Пример http://ffsu.vidak.icu

MVO

2 сезон

1 сезон

1

1 сезон

iTunes

2 сезон

13

1 сезон

Deluxe

pack

Рекомендуем

Пиратка

30

ВАЖНО

RePack

MK11

RePack

jed

RePack

fifa19

RePack

RDR2

RePack

NEED FOR SPEED™ PAYBACK

Кинопоиск HD

6 сезон

 Острые козырьки 6 сезон

Все сериалы

все сериалы на PB.wtf

RePack

FAR CRY 5

Anonymous, нам критически не хватает 5601 руб. на оплату серверов и переферии за Апрель, помоги нам пожалуйста, вся надежда только на тебя. В благодарность мы отключим тебе всю рекламу на сайте!

×
  
Magnet ссылка

Мандалорец / The Mandalorian / Сезон: 2 / Серии: 1-8 из 8 (Дебора Чоу, Рик Фамуйива, Дэйв Филони) [2020, фантастика, боевик, приключения, WEB-DL 720p] MVO [LostFilm] pb.wtf

Мандалорец через торрент pb.wtf

Раздают: 1 [ 0 KB/s ]
Размер: 15.08 GB | Добавлен: 1 год 5 мес. назад | Торрент скачан:599 раз
Смотреть онлайн Мандалорец | Скачать    Ребята, помогите собрать деньги на оплату серверов!!!

01-11-2020 20:30 Мандалорец Скачать торрент  

Мандалорец | The Mandalorian
«***»
Производство: США
Год выпуска: 2020
Студия: Fairview Entertainment, Walt Disney Studios
Жанр: фантастика, боевик, приключения
Продолжительность: ~ 00:52:00 серия
Премьера (мир): 12 ноября 2019
Перевод: Профессиональный (многоголосый закадровый) | LostFilm
Субтитры: Russian (Forced, Full |Где тексты, Лебовски?|), English (SDH)

Режиссёр: Дебора Чоу, Рик Фамуйива, Дэйв Филони

В ролях: Педро Паскаль, Кайл Пацек, Брендан Уэйн, Бернард Баллен, Александра Гилман, Луис Ричард Гомес, Джамал Антар, Тейт Флетчер, Тони Табоада, Омид Абтахи и др.

Описание:
Одинокий мандалорец-наёмник живёт на краю обитаемой галактики, куда не дотягивается закон Новой Республики. Представитель некогда могучей расы благородных воинов теперь вынужден влачить жалкое существование среди отбросов общества.



Качество: WEB-DL 720p
Формат: MKV

Видео: MPEG-4 AVC, 1280x720 at 23.976 fps, MPEG-4 AVC, ~4250 kbps avg
Аудио Rus: 48 kHz, AC3, 2/0 (L,R) ch, ~384 kbps avg | LostFilm
Аудио Eng: 48 kHz, E-AC3 JOC, 3/2 (L,C,R,l,r) + LFE ch, ~768 kbps avg | Original
скриншот  скриншот  скриншот  скриншот  

Общее
Уникальный идентификатор : 190257689661904679781661155806377322453 (0x8F224C54ABD227628E35BA5EEAC2A7D5)
Полное имя : The.Mandalorian.S02E01.mkv
Формат : Matroska
Версия формата : Version 2
Размер файла : 1,95 Гбайт
Продолжительность : 51 м. 48 с.
Режим общего битрейта : Переменный
Общий поток : 5 398 Кбит/сек
Дата кодирования : UTC 2020-11-01 20:14:23
Программа кодирования : mkvmerge v5.8.0 ('No Sleep / Pillow') built on Sep 2 2012 15:37:04
Библиотека кодирования : libebml v1.2.3 + libmatroska v1.3.0

Видео
Идентификатор : 1
Формат : AVC
Формат/Информация : Advanced Video Codec
Профиль формата : High@L3.1
Настройки формата : CABAC / 4 Ref Frames
Параметр CABAC формата : Да
Параметр RefFrames формата : 4 кадра
Идентификатор кодека : V_MPEG4/ISO/AVC
Продолжительность : 51 м. 48 с.
Вид битрейта : Переменный
Битрейт : 4 139 Кбит/сек
Максимальный битрейт : 6 375 Кбит/сек
Ширина : 1 280 пикселей
Высота : 720 пикселей
Соотношение сторон : 16:9
Режим частоты кадров : Постоянный
Частота кадров : 23,976 (24000/1001) кадра/сек
Цветовое пространство : YUV
Субдискретизация насыщенности : 4:2:0
Битовая глубина : 8 бит
Тип развёртки : Прогрессивная
Бит/(Пиксели*Кадры) : 0.187
Размер потока : 1,50 Гбайт (77%)
Default : Да
Forced : Нет
Цветовой диапазон : Limited
Основные цвета : BT.709
Характеристики трансфера : BT.709
Коэффициенты матрицы : BT.709

Аудио #1
Идентификатор : 2
Формат : AC-3
Формат/Информация : Audio Coding 3
Коммерческое название : Dolby Digital
Идентификатор кодека : A_AC3
Продолжительность : 51 м. 48 с.
Вид битрейта : Постоянный
Битрейт : 384 Кбит/сек
Каналы : 2 канала
Channel layout : L R
Частота : 48,0 КГц
Частота кадров : 31,250 кадров/сек (1536 SPF)
Метод сжатия : С потерями
Размер потока : 142 Мбайт (7%)
Заголовок : LostFilm
Язык : Russian
Service kind : Complete Main
Default : Да
Forced : Нет

Аудио #2
Идентификатор : 3
Формат : E-AC-3 JOC
Формат/Информация : Enhanced AC-3 with Joint Object Coding
Коммерческое название : Dolby Digital Plus with Dolby Atmos
Идентификатор кодека : A_EAC3
Продолжительность : 51 м. 48 с.
Вид битрейта : Постоянный
Битрейт : 768 Кбит/сек
Каналы : 6 каналов
Channel layout : L R C LFE Ls Rs
Частота : 48,0 КГц
Частота кадров : 31,250 кадров/сек (1536 SPF)
Метод сжатия : С потерями
Размер потока : 285 Мбайт (14%)
Язык : English
Service kind : Complete Main
Default : Нет
Forced : Нет
Complexity index : 16
Number of dynamic objects : 15
Bed channel count : 1 канал
Bed channel configuration : LFE

Текст #1
Идентификатор : 4
Формат : UTF-8
Идентификатор кодека : S_TEXT/UTF8
Идентификатор кодека/Информация : UTF-8 Plain Text
Заголовок : Full
Язык : Russian
Default : Нет
Forced : Нет

Текст #2
Идентификатор : 5
Формат : UTF-8
Идентификатор кодека : S_TEXT/UTF8
Идентификатор кодека/Информация : UTF-8 Plain Text
Заголовок : SDH
Язык : English
Default : Нет
Forced : Нет

Когда раздача ведётся путём добавления новых серий, при каждом добавлении создётся новый торрент. Чтобы начать докачку новой серии, пользователям необходимо сделать следующее:
(1) остановить скачивание,
(2) удалить старый торрент у себя из клиента (старые серии удалять не надо),
(3) скачать новый торрент и запустить его у себя в клиенте вместо старого, при этом указать клиенту путь в старую папку, куда и должно происходить скачивание новых серий.
Ваш клиент при этом должен произвести хеширование (проверку) старой папки (если не производит сам - помогите ему сделать это), и будет докачивать только те серии, которых у вас ещё нет. Старые серии при этом не удаляются, а продолжают раздаваться!
Eсли вы уже удалили старые серии, то предотвратить повторную закачку старых серий можно, отжав галочку в соответсвующих местах при запуске нового торрента. По возможности, желательно не удалять старые серии как можно дольше, чтобы релизёр не столько продолжал раздавать старые серии, а смог сконцентрироваться на новых.

pb.wtf



Скачать Мандалорец через торрент https://i114.fastpic.ru/big/2020/1101/1c/374137614b10cb4ccaa8ab506e058e1c.png?r=1 Скачать, смотреть онлайн Мандалорец бесплантно в хорошем качестве Описание:Одинокий мандалорец-наёмник живёт на краю обитаемой галактики, куда не дотягивается закон Новой Республики. Представитель некогда ... 9.9 10 36
Торрент: Зарегистрирован [2020-12-20 18:35] · скачан: 599 раз
Статус: √ проверено
Размер: 15.08 GB
Как cкачать? Как скачать Мандалорец через торрент | UTorrent

% Раздел Тема Автор DL S | L
Зарубежные сериалы [ 17.6 GB ] Мандалорец / The Mandalorian / Сезон: 2 / Серии: 1-8 из 8 [2020 WEB-DL 1080p] 6x[MVO] + [AV0] + [Ukr MVO] killermax2013 Скачать
4 | 0
Зарубежные сериалы [ 28.29 GB ] Мандалорец / The Mandalorian / Сезон: 2 / Серии: 1-8 из 8 [2020 WEB-DL 1080p] MVO [LostFilm] bober100 Скачать
2 | 0
Зарубежные сериалы [ 27.55 GB ] Мандалорец / The Mandalorian / Сезон: 2 / Серии: 1-8 из 8 [2020 WEB-DL 1080p] MVO [Jaskier] bober100 Скачать
1 | 0
Зарубежные сериалы [ 34.23 GB ] Мандалорец / The Mandalorian / Сезон: 2 / Серия: 1-8 из 8 [2020 WEB-DL 1080p] [MVO] killermax2013 Скачать
3 | 0
Зарубежные сериалы [ 17.1 GB ] Мандалорец / The Mandalorian / Сезон: 2 / Серии: 1-8 из 8 [2020 WEBRip 720p] MVO [AlexFilm] bober100 Скачать
1 | 0
Зарубежные сериалы [ 6.49 GB ] Мандалорец / The Mandalorian / Сезон: 2 / Серии: 1-8 из 8 [2020 WEB-DLRip] MVO [AMS] bober100 Скачать
1 | 0
Зарубежные сериалы [ 60.2 GB ] Мандалорец / The Mandalorian / Сезон: 2 / Серии: 1-8 из 8 [2020 WEB-DL 2160p] 6xMVO +AVO bober100 Скачать
5 | 0


Последний раз редактировалось: bober100 (2020-12-20 19:14), всего редактировалось 6 раз(а)

28-11-2019 20:33  

Отключить всю рекламу на сайте

16-11-2020 17:45 Мандалорец Скачать торрент  

Еееее 3-я серия, благодарю Вас.pb.wtf



19-12-2020 20:37 Мандалорец Скачать торрент  

Цитата:

Мандалорец / The Mandalorian / Сезон: 2 / Серии: 1-7 из 8 (Дебора Чоу, Рик Фамуйива, Дэйв Филони) [2020, фантастика, боевик, приключения, WEB-DL 720p] MVO [LostFilm]

LostFilm отстаёт с переводом по сравнению с Alexfilm или Jaskier. Когда будет заключительная серия ?pb.wtf



    Дорогой пользователь! Огромная просьба, поблагодарите релизера, оцените раздачу и оставьте свои комментарий, если Вы скачали Мандалорец через торрент бесплатно!
    Комментировать посты могут только пользователи прошедшие не сложную регистрацию
    Показать сообщения:    

    Мандалорец через торрент
    Скачать бесплатно Мандалорец
    Мандалорец скачать торрент
    Мандалорец смотреть онлайн
    Cкачать фильм Мандалорец бесплатно
    Мандалорец скачать торрент в хорошем качестве
    Мандалорец смотреть онлайн бесплатно в хорошем качестве


    Вы не можете начинать темы
    Вы не можете отвечать на сообщения
    Вы не можете редактировать свои сообщения
    Вы не можете удалять свои сообщения
    Вы не можете голосовать в опросах
    Вы не можете прикреплять файлы к сообщениям
    Вы можете скачивать файлы