Всегда рабочее зеркало без VPN и Proxy просто перед .vidak.icu напиши любое слово или цифру, Пример http://4213.vidak.icu

MVO

Лицензия

1 сезон

1

1 сезон

iTunes

1 сезон

13

1 сезон

Deluxe

pack

Рекомендуем

Repack

30

ВАЖНО

RePack

MK11

RePack

jed

RePack

fifa19

RePack

RDR2

RePack

NEED FOR SPEED™ PAYBACK

Кинопоиск HD

6 сезон

 Острые козырьки 6 сезон

Все сериалы

все сериалы на PB.wtf

RePack

FAR CRY 5
  
Magnet ссылка

Картонная пристань (Кирилл Котельников) [2020, Триллер, криминал, WEB-DL 720p] pb.wtf

Картонная пристань через торрент pb.wtf

Качают: 1 [ 0 KB/s ]
Размер: 1.87 GB | Добавлен: 1 год 8 мес. назад | Торрент скачан:164 раза
Смотреть онлайн Картонная пристань | Скачать    Ребята, помогите собрать деньги на оплату серверов!!!

02-11-2020 04:43 Картонная пристань Скачать торрент  

Картонная пристань
Год выпуска: 2020
Страна: Россия
Студия: ООО "Культурный фонд поддержки регионального кино 'Кинопровинция"
Жанр: Триллер, криминал
Продолжительность: 01:31:04
Перевод: Не требуется
Субтитры: отсутствуют

Режиссер: Кирилл Котельников



В ролях: Иван Жвакин, Дарья Савельева, Владимир Зайцев, Борис Каморзин, Ольга Тумайкина, Михаил Ефремов, Алекс Артман

Описание: Четверо московских журналистов едут делать репортаж о российской глубинке. Пресс-тур, обещавший быть двухдневной экзотикой и принести кому — много лайков, а кому — одобрение начальства, оборачивается столкновением с реальностью гоголевского типа: москвичам, не державшим до этой ночи в руках ничего тяжелее гаджета, приходится жестоко бороться за свою жизнь и противостоять местным, желающим любой ценой сохранить тайну своей деревни.

Качество: WEB-DL 720p
Формат: MKV

Видео: MPEG-4 AVC, 2600 Кбит/с, 1280x532
Аудио: 48 kHz, AC3 Dolby Digital, 3/2 (L,C,R,l,r) + LFE ch, ~384 kbps
скриншот  скриншот  скриншот  скриншот  

Общее
Уникальный идентификатор : 213913861474239684931025118505498624171 (0xA0EE4FA66E25171A9C51EFA080B4C0AB)
Полное имя : C:\Kartonnaya.pristanj.2020.WEB-DL.720p.ExKinoRay.mkv
Формат : Matroska
Версия формата : Version 2
Размер файла : 1,87 Гбайт
Продолжительность : 1 ч. 31 м.
Общий поток : 2944 Кбит/сек
Дата кодирования : UTC 2020-11-01 21:12:13
Программа кодирования : mkvmerge v5.8.0 ('No Sleep / Pillow') built on Sep 2 2012 15:37:04
Библиотека кодирования : libebml v1.2.3 + libmatroska v1.3.0

Видео
Идентификатор : 1
Формат : AVC
Формат/Информация : Advanced Video Codec
Профиль формата : [email protected]
Настройки формата : CABAC / 4 Ref Frames
Параметр CABAC формата : Да
Параметр RefFrames формата : 4 кадра
Идентификатор кодека : V_MPEG4/ISO/AVC
Продолжительность : 1 ч. 31 м.
Битрейт : 2600 Кбит/сек
Ширина : 1280 пикселей
Высота : 532 пикселя
Соотношение сторон : 2,40:1
Режим частоты кадров : Постоянный
Частота кадров : 24,000 кадра/сек
Цветовое пространство : YUV
Субдискретизация насыщенности : 4:2:0
Битовая глубина : 8 бит
Тип развёртки : Прогрессивная
Бит/(Пиксели*Кадры) : 0.153
Размер потока : 1,59 Гбайт (85%)
Язык : Russian
Default : Да
Forced : Нет

Аудио
Идентификатор : 2
Формат : AC-3
Формат/Информация : Audio Coding 3
Коммерческое название : Dolby Digital
Идентификатор кодека : A_AC3
Продолжительность : 1 ч. 31 м.
Вид битрейта : Постоянный
Битрейт : 384 Кбит/сек
Каналы : 6 каналов
ChannelLayout : L R C LFE Ls Rs
Частота : 48,0 КГц
Частота кадров : 31,250 кадров/сек (1536 SPF)
Битовая глубина : 16 бит
Метод сжатия : С потерями
Размер потока : 250 Мбайт (13%)
Язык : Russian
ServiceKind/String : Complete Main
Default : Да
Forced : Нет

pb.wtf



Скачать Картонная пристань через торрент https://a.radikal.ru/a17/2011/9e/7096a0c6e2e7.jpg Скачать, смотреть онлайн Картонная пристань бесплантно в хорошем качестве Описание: Четверо московских журналистов едут делать репортаж о российской глубинке. Пресс-тур, обещавший быть двухдневной экзотикой и ... 10 10 6
Торрент: Зарегистрирован [2020-11-02 04:43] · скачан: 164 раз
Статус: √ проверено
Размер: 1.87 GB
Как cкачать? Как скачать Картонная пристань через торрент | UTorrent

% Раздел Тема Автор DL S | L
Наши новые фильмы 2020 - 2022 [ 1.46 GB ] Картонная пристань [2020 WEB-DLRip] bober100 Скачать
1 | 0
Наши новые фильмы 2020 - 2022 [ 1.46 GB ] Картонная пристань [2020 WEB-DLRip-AVC] bober100 Скачать
1 | 0

28-11-2019 20:33  

Отключить всю рекламу на сайте

03-11-2020 12:11 Картонная пристань Скачать торрент  

о... мишаня успел сняцо в кинчеге pb.wtf



09-11-2020 01:08 Картонная пристань Скачать торрент  

простенько.,но нормально посмотрелось кино.pb.wtf



25-11-2020 16:10 Картонная пристань Скачать торрент  

американский стиль русский фальклёр..на любителя.pb.wtf



    Дорогой пользователь! Огромная просьба, поблагодарите релизера, оцените раздачу и оставьте свои комментарий, если Вы скачали Картонная пристань через торрент бесплатно!
    Комментировать посты могут только пользователи прошедшие не сложную регистрацию
    Показать сообщения:    

    Картонная пристань через торрент
    Скачать бесплатно Картонная пристань
    Картонная пристань скачать торрент
    Картонная пристань смотреть онлайн
    Cкачать фильм Картонная пристань бесплатно
    Картонная пристань скачать торрент в хорошем качестве
    Картонная пристань смотреть онлайн бесплатно в хорошем качестве


    Вы не можете начинать темы
    Вы не можете отвечать на сообщения
    Вы не можете редактировать свои сообщения
    Вы не можете удалять свои сообщения
    Вы не можете голосовать в опросах
    Вы не можете прикреплять файлы к сообщениям
    Вы можете скачивать файлы