2 сезон

iTunes

MVO

1

2 сезон

iTunes

iTunes

1 сезон

RePack

30

Ultimate

ВАЖНО

ИГРА 18+

pack

RePack

MK11
pack

Легкие деньги

RePack

jed

RePack

fifa19

RePack

RDR2

RePack

NEED FOR SPEED™ PAYBACK

4 сезон

9 сезон

Бесстыжие 9 сезон

Все сериалы

все сериалы на PB.wtf

RePack

FAR CRY 5

Anonymous, доброй ночи, мы не успеваем собрать деньги на оплату серверов за декабрь и январь, помогите нам пожалуйста в это трудное время. В качестве благодарности мы отключим Вам всю рекламу на сайте (укажите свой ник в строку Ваше имя)!

×
  
Magnet ссылка

Чернокнижник / Warlock (Стив Майнер) [1989 г., фэнтези, триллер, приключения, BDRip 720p / 60 FPS, Профессиональный (многоголосый)] от R.G. HD-Films pb.wtf

Чернокнижник через торрент pb.wtf

Раздают: 1 [ 0 KB/s ]
Размер: 3.96 GB | Добавлен: 2 мес. 20 д. назад | Торрент скачан:116 раз
Скачать  

02-11-2020 12:53 Чернокнижник Скачать торрент  

Чернокнижник / Warlock
Год выпуска: 1989
Страна: США
Жанр: фэнтези, триллер, приключения
Продолжительность: 01:46:07
Перевод: Профессиональный (многоголосый) ( ОРТ )
Субтитры: русские, английские

Режиссер: Стив Майнер

Бюджет: $7 000 000
Премьера в мире: 1 июня 1989

rating

В ролях: Джулиан Сэндс, Лори Сингер, Ричард Э. Грант, Мэри Воронов, Кевин О’Брайэн, Ричард Касс, Аллан Миллер, Анна Левайн, Дэвид Карпентер, Кэй Е. Кьютер, ...

Описание: Бостон, 1691 год. До казни самого могущественного колдуна-чернокнижника Нового Света остается лишь несколько часов. Но сам дьявол освобождает своего ученика из заточения и переносит его на триста лет вперед, через пространство и время, в современный Лос-Анджелес. Здесь чернокнижник должен найти и соединить три части Великого Гримуара — сатанинской Библии — и раскрыть тайное имя Господа, после чего Земля окажется во власти дьявола. Но на его пути встает охотник на ведьм Жиль Редферн, предавший чернокнижника суду Господню в средневековой Новой Англии и перенесшийся вслед за ним в современный Лос-Анджелес…

Качество: BDRip 720p / 60 FPS
Формат: MKV
Видео кодек: H.264
Аудио кодек: AC3
Видео: x264, 1280 x 696 ( 1,85:1 ), 5309 kbps, 60,000 fps, ( 0.099 bpp)
Аудио#1: Русский, AC-3, 48.0 KHz, 2 ch, 192 Kbps MVO ( ОРТ )
Релиз от: Автор рипа: slaventi-69
x264 [info]: frame I:1383 Avg QP:18.62 size: 99785
x264 [info]: frame P:96396 Avg QP:19.36 size: 25776
x264 [info]: frame B:273402 Avg QP:21.62 size: 5423
x264 [info]: consecutive B-frames: 4.5% 4.5% 8.3% 13.4% 57.8% 11.5%


Общее
Уникальный идентификатор : 199925896920726778090515944610599051830 (0x966853C05A243EE69C88A89D87F0A236)
Полное имя : F:\Warlock.(1989).BDRip.720p.(60 Fps).mkv
Формат : Matroska
Версия формата : Version 4
Размер файла : 3,96 Гбайт
Продолжительность : 1 ч. 43 м.
Общий поток : 5505 Кбит/сек
Название фильма : Чернокнижник / Warlock (1989) BDRip 720p (60 Fps)
Дата кодирования : UTC 2020-11-02 12:35:20
Программа кодирования : mkvmerge v9.1.0 ('Little Earthquakes') 64bit
Библиотека кодирования : libebml v1.3.3 + libmatroska v1.4.4

Видео
Идентификатор : 1
Формат : AVC
Формат/Информация : Advanced Video Codec
Профиль формата : High@L4.1
Настройки формата : CABAC / 8 Ref Frames
Параметр CABAC формата : Да
Параметр RefFrames формата : 8 кадров
Идентификатор кодека : V_MPEG4/ISO/AVC
Продолжительность : 1 ч. 43 м.
Битрейт : 5309 Кбит/сек
Ширина : 1280 пикселей
Высота : 696 пикселей
Соотношение сторон : 1,85:1
Режим частоты кадров : Постоянный
Частота кадров : 60,000 кадров/сек
Цветовое пространство : YUV
Субдискретизация насыщенности : 4:2:0
Битовая глубина : 8 бит
Тип развёртки : Прогрессивная
Бит/(Пиксели*Кадры) : 0.099
Размер потока : 3,82 Гбайт (96%)
Заголовок : slaventi-69 ( R.G. HD-Films | 60 fps )
Библиотека кодирования : x264 core 130 r2273 b3065e6
Настройки программы : cabac=1 / ref=8 / deblock=1:0:0 / analyse=0x3:0x113 / me=umh / subme=9 / psy=1 / psy_rd=1.00:0.00 / mixed_ref=1 / me_range=32 / chroma_me=1 / trellis=2 / 8x8dct=1 / cqm=0 / deadzone=21,11 / fast_pskip=1 / chroma_qp_offset=-2 / threads=10 / lookahead_threads=4 / sliced_threads=0 / nr=0 / decimate=1 / interlaced=0 / bluray_compat=0 / constrained_intra=0 / bframes=5 / b_pyramid=2 / b_adapt=2 / b_bias=0 / direct=1 / weightb=1 / open_gop=0 / weightp=2 / keyint=600 / keyint_min=23 / scenecut=40 / intra_refresh=0 / rc=crf / mbtree=0 / crf=17.8 / qcomp=0.60 / qpmin=0 / qpmax=69 / qpstep=4 / ip_ratio=1.40 / pb_ratio=1.30 / aq=1:1.00
Язык : English
Default : Да
Forced : Нет

Аудио
Идентификатор : 2
Формат : AC-3
Формат/Информация : Audio Coding 3
Коммерческое название : Dolby Digital
Идентификатор кодека : A_AC3
Продолжительность : 1 ч. 43 м.
Вид битрейта : Постоянный
Битрейт : 192 Кбит/сек
Каналы : 2 канала
Channel layout : L R
Частота : 48,0 КГц
Частота кадров : 31,250 кадров/сек (1536 SPF)
Битовая глубина : 16 бит
Метод сжатия : С потерями
Размер потока : 142 Мбайт (3%)
Заголовок : MVO ( ОРТ )
Язык : Russian
ServiceKind/String : Complete Main
Default : Да
Forced : Нет

Текст #1
Идентификатор : 3
Формат : UTF-8
Идентификатор кодека : S_TEXT/UTF8
Идентификатор кодека/Информация : UTF-8 Plain Text
Продолжительность : 1 ч. 37 м.
Битрейт : 65 бит/сек
ElementCount : 692
Размер потока : 46,5 Кбайт (0%)
Заголовок : без комментариев
Язык : Russian
Default : Нет
Forced : Нет

Текст #2
Идентификатор : 4
Формат : UTF-8
Идентификатор кодека : S_TEXT/UTF8
Идентификатор кодека/Информация : UTF-8 Plain Text
Продолжительность : 1 ч. 37 м.
Битрейт : 71 бит/сек
ElementCount : 694
Размер потока : 50,9 Кбайт (0%)
Заголовок : с комментариями
Язык : Russian
Default : Нет
Forced : Нет

Текст #3
Идентификатор : 5
Формат : UTF-8
Идентификатор кодека : S_TEXT/UTF8
Идентификатор кодека/Информация : UTF-8 Plain Text
Продолжительность : 1 ч. 37 м.
Битрейт : 37 бит/сек
ElementCount : 1130
Размер потока : 26,7 Кбайт (0%)
Язык : English
Default : Нет
Forced : Нет

Меню
00:00:00.000 : en:00:00:00.000
00:08:24.379 : en:00:08:24.379
00:17:57.243 : en:00:17:57.243
00:28:02.389 : en:00:28:02.389
00:35:42.390 : en:00:35:42.390
00:44:23.452 : en:00:44:23.452
00:55:50.013 : en:00:55:50.013
01:03:12.497 : en:01:03:12.497
01:11:49.013 : en:01:11:49.013
01:24:11.463 : en:01:24:11.463
01:32:18.783 : en:01:32:18.783
01:37:37.351 : en:01:37:37.351

Просьба к переливающим на другие сайты, в оформлении указывайте пожалуйста авторство группы R.G. HD-Films pb.wtf



Скачать Чернокнижник через торрент https://c.radikal.ru/c01/1811/5f/e9fc29ba2e88.png Скачать фильм Чернокнижник через торрент бесплантно в хорошем качестве Описание: Бостон, 1691 год. До казни самого могущественного колдуна-чернокнижника Нового Света остается лишь несколько часов. Но сам дьявол ... 10 10 9
Торрент: Зарегистрирован [2020-11-02 12:53] · скачан: 116 раз
Статус: √ проверено
Размер: 3.96 GB
Как cкачать? Как скачать Чернокнижник через торрент | UTorrent

28-11-2019 20:33  

Отключить всю рекламу на сайте

02-11-2020 22:29 Чернокнижник Скачать торрент  

Спасибо за атмосферный фильм, вот только вторую пересмотрел от mimoka. Третья часть уже не стоит внимания!pb.wtf



03-11-2020 07:31 Чернокнижник Скачать торрент  

Самый лучший фильм стива майнера. Раздающему СПСpb.wtf



    Дорогой пользователь! Огромная просьба, поблагодарите релизера, оцените раздачу и оставьте свои комментарий, если Вы скачали Чернокнижник через торрент бесплатно! Внесите свою лепту в развитие PiratBit!
    Комментировать посты могут только пользователи прошедшие не сложную регистрацию
    Показать сообщения:    

    Чернокнижник через торрент
    Скачать бесплатно Чернокнижник
    Чернокнижник скачать торрент
    Чернокнижник смотреть онлайн
    Cкачать фильм Чернокнижник бесплатно
    Чернокнижник скачать торрент в хорошем качестве
    Чернокнижник смотреть онлайн бесплатно в хорошем качестве


    Вы не можете начинать темы
    Вы не можете отвечать на сообщения
    Вы не можете редактировать свои сообщения
    Вы не можете удалять свои сообщения
    Вы не можете голосовать в опросах
    Вы не можете прикреплять файлы к сообщениям
    Вы можете скачивать файлы