Anonymous, доброй ночи, присоединяйтесь к нам в Telegram!, здесь всегда актуальный адрес сайта, оперативная поддержка и многое другое!

>

5.6

iTunes

7.4

MVO

5.7

MVO

1

7.7

1 сезон

6.8

iTunes

7.3

1 сезон

13

6.7

1 сезон

8.3

RePack

30

ULTIMATE

pack

9.9

Лицензия

ВАЖНО

ИГРА 18+

pack

7.3

RePack

MK11

7.7

RePack

jed

7.8

RePack

fifa19

8.5

RePack

RDR2

RePack

NEED FOR SPEED™ PAYBACK

4 сезон

9 сезон

Бесстыжие 9 сезон

Все сериалы

все сериалы на PB.wtf

RePack

FAR CRY 5

Anonymous, доброй ночи, мы катастрофически не успеваем собрать деньги на оплату серверов, помогите нам пожалуйста 5,10,15р., для нас важна любая помощь . В качестве благодарности мы отключим Вам всю рекламу на сайте (укажите свой ник в строку Ваше имя)!

×
  
Magnet ссылка

Иванько / Сезон: 1 / Серии: 1-17 из 17 (Шота Гамисония, Всеволод Бродский, Ксения Воронина) [2020, Комедия, WEBRip 720p] pb.wtf

Иванько через торрент pb.wtf

Раздают: 1 [ 3 KB/s ]
Размер: 9.46 GB | Добавлен: 10 мес. назад | Торрент скачан:101 раз
Смотреть онлайн Иванько | Скачать    Ребята, помогите собрать деньги на оплату серверов!!!

02-11-2020 20:17 Иванько Скачать торрент  

Иванько
Год выпуска: 2020
Страна: Россия
Выпущено: Good Story Media по заказу телеканала ТНТ
Жанр: Комедия
Продолжительность: ~ 00:25:00 серия
Перевод: Не требуется
Субтитры: отсутствуют

Режиссер: Шота Гамисония, Всеволод Бродский, Ксения Воронина



В ролях: Ангелина Миримская, Валентина Мазунина, Виктория Заболотная, Михаил Тройник, Алексей Вертков, Денис Шведов, Елена Шевченко, Алексей Ведерников (II), Шота Гамисония, Анастасия Акатова, Антон Шаврин, Александр Яценко, Валерия Яковлева, Георгий Сегал, Никита Карбан, Полина Давыдова

Описание: Раскрепощенная и хамоватая Настя — учительница танцев и тамада, скромница Валя — психолог и учительница английского. Им чуть за тридцать, и вроде все, как у всех. Но одна до сих пор живет с мамой, вторая с ненадежным бойфрендом, с которым у нее постоянные скандалы. Они встретились при странных обстоятельствах — в обезьяннике в отделе полиции. Выслушав истории друг друга, девушки решают во что бы то ни стало помочь подруге изменить жизнь, не спрашивая, хочет она этого или нет. Но именно это вмешательство помогает им понять, что, на самом деле, обе они несчастны, и с этим уже пора что-то делать. Но понять – еще не значит изменить. Этот путь оказывается не так уж и прост. В погоне за счастьем они постоянно спотыкаются, наступают на одни и те же грабли, усугубляя и без того навалившиеся проблемы с личной жизнью, работой, родителями.

Качество: WEBRip 720p
Формат: MKV

Видео: MPEG-4 AVC, ~ 3000 Кбит/с, 1280x720, 25 кадр/с
Аудио: 48.0 kHz, AC3 Dolby Digital, 2/0 (L,R) ch, ~ 192 kbps
скриншот  скриншот  скриншот  скриншот  скриншот  

General
General
Unique ID : 178911425446317750270548288889040788485 (0x8699165082EC759DB6916CFA82C9DC05)
Complete name : C:\00\Иванько .2020.WEB-DL 720p.Files-x\01. Иванько .2020.WEB-DL 720p.Files-x.mkv
Format : Matroska
File size : 581 MiB
Duration : 25mn 28s
Overall bit rate : 3 190 Kbps
Encoded date : UTC 2020-11-02 17:35:05
Writing application : mkvmerge v7.8.0 ('River Man') 32bit built on Apr 3 2015 12:11:22
Writing library : libebml v1.3.1 + libmatroska v1.4.2

Video
ID : 1
Format : AVC
Format/Info : Advanced Video Codec
Format profile : High@L3.1
Format settings, CABAC : Yes
Format settings, ReFrames : 1 frame
Codec ID : V_MPEG4/ISO/AVC
Duration : 25mn 28s
Bit rate mode : Variable
Bit rate : 2 934 Kbps
Maximum bit rate : 3 000 Kbps
Width : 1 280 pixels
Height : 720 pixels
Display aspect ratio : 16:9
Frame rate : 25.000 fps
Color space : YUV
Chroma subsampling : 4:2:0
Bit depth : 8 bits
Scan type : Progressive
Bits/(Pixel*Frame) : 0.127
Stream size : 535 MiB (92%)

Audio
ID : 2
Format : AC-3
Format/Info : Audio Coding 3
Mode extension : CM (complete main)
Codec ID : A_AC3
Duration : 25mn 28s
Bit rate mode : Constant
Bit rate : 192 Kbps
Channel(s) : 2 channels
Channel positions : Front: L R
Sampling rate : 44.1 KHz
Bit depth : 16 bits
Compression mode : Lossy
Delay relative to video : 9ms
Stream size : 35.0 MiB (6%)

Когда раздача ведётся путём добавления новых серий, при каждом добавлении создётся новый торрент. Чтобы начать докачку новой серии, пользователям необходимо сделать следующее:
(1) остановить скачивание,
(2) удалить старый торрент у себя из клиента (старые серии удалять не надо),
(3) скачать новый торрент и запустить его у себя в клиенте вместо старого, при этом указать клиенту путь в старую папку, куда и должно происходить скачивание новых серий.
Ваш клиент при этом должен произвести хеширование (проверку) старой папки (если не производит сам - помогите ему сделать это), и будет докачивать только те серии, которых у вас ещё нет. Старые серии при этом не удаляются, а продолжают раздаваться!
Eсли вы уже удалили старые серии, то предотвратить повторную закачку старых серий можно, отжав галочку в соответсвующих местах при запуске нового торрента. По возможности, желательно не удалять старые серии как можно дольше, чтобы релизёр не столько продолжал раздавать старые серии, а смог сконцентрироваться на новых.

pb.wtf



Скачать Иванько через торрент https://img11.lostpic.net/2020/11/02/875dac704794e893b35e7e95091f5e1b.jpg Скачать, смотреть онлайн Иванько бесплантно в хорошем качестве Описание: Раскрепощенная и хамоватая Настя — учительница танцев и тамада, скромница Валя — психолог и учительница английского. Им чуть за ... 8.4 10 11
Торрент: Зарегистрирован [2020-11-26 19:33] · скачан: 101 раз
Статус: √ проверено
Размер: 9.46 GB
Как cкачать? Как скачать Иванько через торрент | UTorrent

% Раздел Тема Автор DL S | L
TNT serials [ 4.98 GB ] Иванько / Сезон: 1 / Серии: 1-17 из 17 [2020 WEBRip] bober100 Скачать
2 | 1
TNT serials [ 18.3 GB ] Иванько / Сезон: 1 / Серии: 1-17 из 17 [2020 HDTV 1080i] bober100 Скачать
2 | 0
TNT serials [ 5.32 GB ] Иванько / Сезон: 1 / Серии: 1-17 из 17 [2020 WEBRip-AVC] bober100 Скачать
1 | 0
TNT serials [ 13.92 GB ] Иванько / Сезон: 1 / Серии: 1-17 из 17 [2020 WEBRip 1080p] bober100 Скачать
1 | 1
TNT serials [ 4.98 GB ] Иванько / Сезон: 1 / Серии: 1-17 из 17 [2020 SATRip] bober100 Скачать
1 | 0

28-11-2019 20:33  

Отключить всю рекламу на сайте

    Дорогой пользователь! Огромная просьба, поблагодарите релизера, оцените раздачу и оставьте свои комментарий, если Вы скачали Иванько через торрент бесплатно!
    Комментировать посты могут только пользователи прошедшие не сложную регистрацию
    Показать сообщения:    

    Иванько через торрент
    Скачать бесплатно Иванько
    Иванько скачать торрент
    Иванько смотреть онлайн
    Cкачать фильм Иванько бесплатно
    Иванько скачать торрент в хорошем качестве
    Иванько смотреть онлайн бесплатно в хорошем качестве


    Вы не можете начинать темы
    Вы не можете отвечать на сообщения
    Вы не можете редактировать свои сообщения
    Вы не можете удалять свои сообщения
    Вы не можете голосовать в опросах
    Вы не можете прикреплять файлы к сообщениям
    Вы можете скачивать файлы