Ссылка на приватное зеркало нашего сайта всего за 1$. Внимание количество ограничено!!!

2 сезон

iTunes

1 сезон

1

2 сезон

2 сезон

iTunes

1 сезон

RePack

30

Новинка

ВАЖНО

ИГРА 18+

pack

RePack

MK11
pack

Забери бонус

RePack

jed

!!Акция!!

Alien_Rage

RePack

fifa19

RePack

Assassins Creed: Odyssey

RePack

NEED FOR SPEED™ PAYBACK

4 сезон

9 сезон

Бесстыжие 9 сезон

Все сериалы

все сериалы на PB.wtf

RePack

FAR CRY 5
  

Человеческий капитал / Human Capital (Марк Мейерс) [2019, Драма, криминал, WEB-DL 1080p] DUB [iTunes] pb.wtf

Человеческий капитал через торрент pb.wtf

Раздают: 3 [ 0.1 KB/s ]
Размер: 3.65 GB | Добавлен: 27 д. назад | Торрент скачан:105 раз
Скачать  

03-11-2020 10:27 Человеческий капитал Скачать торрент  

Человеческий капитал | Human Capital
Год выпуска: 2019
Страна: США
Студия: Maven Pictures, Bert Marcus Productions, Particular Crowd
Жанр: Драма, криминал
Продолжительность: 01:37:44
Перевод: Дублированный | iTunes
Субтитры: Английские

Режиссер: Марк Мейерс

rating

В ролях: Мариса Томей, Майя Хоук, Питер Сарсгаард, Алекс Вулф, Лив Шрайбер, Пол Спаркс, Аасиф Мандви, Бетти Гэбриел, Фредрик Лене, Кристиана Сидел

Описание: Дружба детей из семей разных социальных слоёв приводит к трагедии.

Качество: WEB-DL 1080p
Формат: MKV

Видео: MPEG-4 AVC, 1908x792, 4579 Kbit/s, 23.976 fps
Аудио#1: 48 kHz, AC3, 5.1, 384 Kbps | iTunes | RUS |
Аудио#2: 48 kHz, AC3, 5.1, 384 Kbps | Оригинал | ENG |
скриншот  скриншот  скриншот  скриншот  скриншот  

General
Unique ID : 62264903439997318984918307780967162596 (0x2ED7C8C175741A350A1C39C3472662E4)
Complete name : D:Video111Human.Capital.2020.WEB-DL.1080p.seleZen.mkv
Format : Matroska
Format version : Version 4
File size : 3.65 GiB
Duration : 1 h 37 min
Overall bit rate : 5 349 kb/s
Movie name : Human Capital 2020 from seleZen
Encoded date : UTC 2020-11-03 10:07:55
Writing application : mkvmerge v40.0.0 ('Old Town Road + Pony') 64-bit
Writing library : libebml v1.3.9 + libmatroska v1.5.2

Video
ID : 1
Format : AVC
Format/Info : Advanced Video Codec
Format profile : High@L4
Format settings : CABAC / 5 Ref Frames
Format settings, CABAC : Yes
Format settings, Reference : 5 frames
Codec ID : V_MPEG4/ISO/AVC
Duration : 1 h 37 min
Bit rate : 4 579 kb/s
Width : 1 908 pixels
Height : 792 pixels
Display aspect ratio : 2.40:1
Frame rate mode : Constant
Frame rate : 23.976 (24000/1001) FPS
Color space : YUV
Chroma subsampling : 4:2:0
Bit depth : 8 bits
Scan type : Progressive
Bits/(Pixel*Frame) : 0.126
Stream size : 3.13 GiB (86%)
Language : English
Default : Yes
Forced : No
Color range : Limited
Color primaries : BT.709
Transfer characteristics : BT.709
Matrix coefficients : BT.709

Audio #1
ID : 2
Format : AC-3
Format/Info : Audio Coding 3
Commercial name : Dolby Digital
Codec ID : A_AC3
Duration : 1 h 37 min
Bit rate mode : Constant
Bit rate : 384 kb/s
Channel(s) : 6 channels
Channel layout : L R C LFE Ls Rs
Sampling rate : 48.0 kHz
Frame rate : 31.250 FPS (1536 SPF)
Compression mode : Lossy
Stream size : 268 MiB (7%)
Title : iTunes
Language : Russian
Service kind : Complete Main
Default : Yes
Forced : Yes

Audio #2
ID : 3
Format : AC-3
Format/Info : Audio Coding 3
Commercial name : Dolby Digital
Codec ID : A_AC3
Duration : 1 h 37 min
Bit rate mode : Constant
Bit rate : 384 kb/s
Channel(s) : 6 channels
Channel layout : L R C LFE Ls Rs
Sampling rate : 48.0 kHz
Frame rate : 31.250 FPS (1536 SPF)
Compression mode : Lossy
Stream size : 268 MiB (7%)
Title : Original
Language : English
Service kind : Complete Main
Default : No
Forced : No

Text
ID : 4
Format : UTF-8
Codec ID : S_TEXT/UTF8
Codec ID/Info : UTF-8 Plain Text
Duration : 1 h 34 min
Bit rate : 64 b/s
Count of elements : 1386
Stream size : 44.9 KiB (0%)
Title : SDH
Language : English
Default : No
Forced : No

Menu
00:00:00.000 : en:1
00:01:09.000 : en:2
00:11:54.000 : en:3
00:23:16.000 : en:4
00:32:20.000 : en:5
00:41:52.000 : en:6
00:51:22.000 : en:7
00:59:08.000 : en:8
01:12:28.000 : en:9
01:20:32.000 : en:10
01:31:33.000 : en:11

pb.wtf



Скачать Человеческий капитал через торрент https://i114.fastpic.ru/big/2020/1103/09/8a55a19474ae6416f930405906004609.jpg Скачать фильм Человеческий капитал через торрент бесплантно в хорошем качестве Описание: Дружба детей из семей разных социальных слоёв приводит к ... 10 10 8
Торрент: Зарегистрирован [2020-11-03 10:27] · скачан: 105 раз
Статус: √ проверено
Размер: 3.65 GB
Как cкачать? Как скачать Человеческий капитал через торрент | qTorrent

% Раздел Тема Автор DL S | L
Фильмы 2019-2020 [DVDrip, WEB-DLRip, HDrip] (DUB, MVO) [ 1.45 GB ] Человеческий капитал / Human Capital [2019 WEB-DLRip-AVC] от MediaBit Lithuania Скачать
3 | 0
Фильмы 2019-2020 [DVDrip, WEB-DLRip, HDrip] (DUB, MVO) [ 1.46 GB ] Человеческий капитал / Human Capital [2019 WEB-DLRip] bober100 Скачать
2 | 0

28-11-2019 20:33  

Отключить всю рекламу на сайте

    Дорогой пользователь! Огромная просьба, поблагодарите релизера, оцените раздачу и оставьте свои комментарий, если Вы скачали Человеческий капитал через торрент бесплатно! Внесите свою лепту в развитие PiratBit!
    Комментировать посты могут только пользователи прошедшие не сложную регистрацию
    Показать сообщения:    

    Человеческий капитал через торрент
    Скачать бесплатно Человеческий капитал
    Человеческий капитал скачать торрент
    Человеческий капитал смотреть онлайн
    Cкачать фильм Человеческий капитал бесплатно
    Человеческий капитал скачать торрент в хорошем качестве
    Человеческий капитал смотреть онлайн бесплатно в хорошем качестве


    Вы не можете начинать темы
    Вы не можете отвечать на сообщения
    Вы не можете редактировать свои сообщения
    Вы не можете удалять свои сообщения
    Вы не можете голосовать в опросах
    Вы не можете прикреплять файлы к сообщениям
    Вы можете скачивать файлы