2 сезон

iTunes

MVO

1

2 сезон

iTunes

iTunes

1 сезон

RePack

30

Ultimate

ВАЖНО

ИГРА 18+

pack

RePack

MK11
pack

Легкие деньги

RePack

jed

RePack

fifa19

RePack

RDR2

RePack

NEED FOR SPEED™ PAYBACK

4 сезон

9 сезон

Бесстыжие 9 сезон

Все сериалы

все сериалы на PB.wtf

RePack

FAR CRY 5

Anonymous, добрый вечер, мы не успеваем собрать деньги на оплату серверов за декабрь и январь, помогите нам пожалуйста в это трудное время. В качестве благодарности мы отключим Вам всю рекламу на сайте (укажите свой ник в строку Ваше имя)!

×
  
Magnet ссылка

Лига справедливости / Justice League (Зак Снайдер) [2017 г., Фантастика, Фэнтези, Боевик, Приключения, BDRip 720p / 60 FPS, Дубляж] от R.G. HD-Films pb.wtf

Лига справедливости через торрент pb.wtf

Раздают: 2 [ 0 KB/s ]
Размер: 4.68 GB | Добавлен: 2 мес. 21 д. назад | Торрент скачан:133 раза
Скачать  

03-11-2020 16:33 Лига справедливости Скачать торрент  

Лига справедливости / Justice League
Год выпуска: 2017
Страна: США, Канада, Великобритания
Жанр: Фантастика, Фэнтези, Боевик, Приключения
Продолжительность: 02:00:02
Перевод: Дубляж
Субтитры: Russian, English

Режиссер: Зак Снайдер

Бюджет: $300 000 000
Премьера в мире: 26 октября 2017

rating

В ролях: Бен Аффлек, Генри Кавилл, Эми Адамс, Галь Гадот, Эзра Миллер, Джейсон Момоа, Рэй Фишер, Джереми Айронс, Дайан Лэйн, Конни Нильсен

Описание: Брюс Уэйн, вдохновленный самопожертвованием Супермена, вновь обретает веру в человечество. Он заручается поддержкой новой союзницы, Дианы Принс, чтобы сразиться с еще более могущественным противником. Бэтмен и Чудо-Женщина быстро набирают команду сверхлюдей для борьбы с пробудившейся угрозой. Но несмотря на уникальный состав отряда супергероев — Бэтмен, Чудо-Женщина, Аквамен, Киборг и Флэш, — быть может, спасать планету от вторжения катастрофических масштабов уже слишком поздно.

Качество: BDRip 720p / 60 FPS
Формат: MKV
Видео кодек: H.264
Аудио кодек: AC3
Видео: x264, 1280 x 720 ( 16:9 ), 5187 kbps, 60,000 fps, ( 0.094 bpp)
Аудио#1: Русский, AC-3, 48.0 KHz, 6 ch, 384 Kbps Dub
Релиз от: Автор рипа: slaventi-69
x264 [info]: frame I:1529 Avg QP:18.01 size: 92423
x264 [info]: frame P:110700 Avg QP:19.31 size: 22641
x264 [info]: frame B:319945 Avg QP:21.25 size: 6322
x264 [info]: consecutive B-frames: 1.6% 5.4% 17.2% 24.0% 39.1% 12.6%


Общее
Уникальный идентификатор : 229411359932010791723645379543418501982 (0xAC97055105EFCBCAA4F3B9EDC88F7B5E)
Полное имя : F:\Justice.League.(2017).BDRip.720p.(60 Fps).mkv
Формат : Matroska
Версия формата : Version 4
Размер файла : 4,68 Гбайт
Продолжительность : 2 ч. 0 м.
Общий поток : 5575 Кбит/сек
Название фильма : Лига справедливости / Justice League (2017) BDRip 720p (60 Fps)
Дата кодирования : UTC 2020-08-09 17:31:48
Программа кодирования : mkvmerge v9.7.1 ('Pandemonium') 64bit
Библиотека кодирования : libebml v1.3.4 + libmatroska v1.4.5

Видео
Идентификатор : 1
Формат : AVC
Формат/Информация : Advanced Video Codec
Профиль формата : High@L4.1
Настройки формата : CABAC / 9 Ref Frames
Параметр CABAC формата : Да
Параметр RefFrames формата : 9 кадров
Идентификатор кодека : V_MPEG4/ISO/AVC
Продолжительность : 2 ч. 0 м.
Битрейт : 5187 Кбит/сек
Ширина : 1280 пикселей
Высота : 720 пикселей
Соотношение сторон : 16:9
Режим частоты кадров : Постоянный
Частота кадров : 60,000 кадров/сек
Цветовое пространство : YUV
Субдискретизация насыщенности : 4:2:0
Битовая глубина : 8 бит
Тип развёртки : Прогрессивная
Бит/(Пиксели*Кадры) : 0.094
Размер потока : 4,35 Гбайт (93%)
Заголовок : slaventi-69 ( R.G. HD-Films | 60 fps )
Библиотека кодирования : x264 core 130 r2273 b3065e6
Настройки программы : cabac=1 / ref=9 / deblock=1:0:0 / analyse=0x3:0x133 / me=umh / subme=9 / psy=1 / psy_rd=1.00:0.00 / mixed_ref=1 / me_range=30 / chroma_me=1 / trellis=2 / 8x8dct=1 / cqm=0 / deadzone=21,11 / fast_pskip=0 / chroma_qp_offset=-2 / threads=10 / lookahead_threads=4 / sliced_threads=0 / nr=0 / decimate=1 / interlaced=0 / bluray_compat=0 / constrained_intra=0 / bframes=5 / b_pyramid=2 / b_adapt=2 / b_bias=0 / direct=2 / weightb=1 / open_gop=0 / weightp=2 / keyint=600 / keyint_min=59 / scenecut=40 / intra_refresh=0 / rc=crf / mbtree=0 / crf=19.0 / qcomp=0.60 / qpmin=0 / qpmax=69 / qpstep=4 / ip_ratio=1.40 / pb_ratio=1.30 / aq=1:1.00
Язык : English
Default : Да
Forced : Нет

Аудио
Идентификатор : 2
Формат : AC-3
Формат/Информация : Audio Coding 3
Коммерческое название : Dolby Digital
Идентификатор кодека : A_AC3
Продолжительность : 2 ч. 0 м.
Вид битрейта : Постоянный
Битрейт : 384 Кбит/сек
Каналы : 6 каналов
Channel layout : L R C LFE Ls Rs
Частота : 48,0 КГц
Частота кадров : 31,250 кадров/сек (1536 SPF)
Битовая глубина : 16 бит
Метод сжатия : С потерями
Размер потока : 330 Мбайт (7%)
Заголовок : Dub
Язык : Russian
ServiceKind/String : Complete Main
Default : Да
Forced : Нет

Текст #1
Идентификатор : 3
Формат : UTF-8
Идентификатор кодека : S_TEXT/UTF8
Идентификатор кодека/Информация : UTF-8 Plain Text
Продолжительность : 1 ч. 31 м.
Битрейт : 1 бит/сек
ElementCount : 23
Размер потока : 1,04 Кбайт (0%)
Заголовок : Rus forced
Язык : Russian
Default : Да
Forced : Да

Текст #2
Идентификатор : 4
Формат : UTF-8
Идентификатор кодека : S_TEXT/UTF8
Идентификатор кодека/Информация : UTF-8 Plain Text
Продолжительность : 1 ч. 58 м.
Битрейт : 69 бит/сек
ElementCount : 1024
Размер потока : 60,3 Кбайт (0%)
Заголовок : Rus full
Язык : Russian
Default : Нет
Forced : Нет

Текст #3
Идентификатор : 5
Формат : UTF-8
Идентификатор кодека : S_TEXT/UTF8
Идентификатор кодека/Информация : UTF-8 Plain Text
Продолжительность : 1 ч. 58 м.
Битрейт : 42 бит/сек
ElementCount : 1233
Размер потока : 36,5 Кбайт (0%)
Заголовок : Eng full
Язык : English
Default : Нет
Forced : Нет

Меню
00:00:00.000 : :Chapter 1
00:10:56.155 : :Chapter 2
00:19:16.488 : :Chapter 3
00:30:41.673 : :Chapter 4
00:40:19.667 : :Chapter 5
00:49:56.535 : :Chapter 6
01:01:26.891 : :Chapter 7
01:09:41.552 : :Chapter 8
01:19:18.587 : :Chapter 9
01:30:34.512 : :Chapter 10
01:40:33.569 : :Chapter 11
01:48:43.058 : :Chapter 12

Просьба к переливающим на другие сайты, в оформлении указывайте пожалуйста авторство группы R.G. HD-Films pb.wtf



Скачать Лига справедливости через торрент http://d.radikal.ru/d21/1902/00/811ccd7160f6.jpg Скачать фильм Лига справедливости через торрент бесплантно в хорошем качестве Описание: Брюс Уэйн, вдохновленный самопожертвованием Супермена, вновь обретает веру в человечество. Он заручается поддержкой новой ... 10 10 10
Info! Золотая раздача, скачанное не засчитывается.
Торрент: Зарегистрирован [2020-11-03 16:33] · скачан: 133 раз
Статус: √ проверено
Размер: 4.68 GB
Как cкачать? Как скачать Лига справедливости через торрент | UTorrent

28-11-2019 20:33  

Отключить всю рекламу на сайте

03-11-2020 20:54 Лига справедливости Скачать торрент  

Это версия Зака Снайдера?pb.wtf



03-11-2020 21:01 Лига справедливости Скачать торрент  

bacsylet писал(а):

Это версия Зака Снайдера?

И близко нет. Снайдеркат ещё не вышел, а когда выйдет - длиться будет подольше (поговаривают о 4 часах).pb.wtf



04-11-2020 04:26 Лига справедливости Скачать торрент  

slaventi-69, Ух ты, шикарно! А на остальные фильмы DC был заказ?pb.wtf



04-11-2020 14:47 Лига справедливости Скачать торрент  

михакруг писал(а):

slaventi-69, Ух ты, шикарно! А на остальные фильмы DC был заказ?

Нет не было.

drnikan(5000), - Спасибо за Золото.pb.wtf



04-11-2020 19:54 Лига справедливости Скачать торрент  

slaventi-69 писал(а):

михакруг писал(а):

slaventi-69, Ух ты, шикарно! А на остальные фильмы DC был заказ?

Нет не было.

drnikan(5000), - Спасибо за Золото.

Жаль! Колекция ДС в твоём исполнении была бы шикарна!
Тем более данная https://piratbit.org/topic/358541/ сборка заброшена и думаю из за формата кодирования! Который не на всех ТВ кажет!
Если решишся на кодировку сборки просьба употреблять релизы с дубляжом!
А Бэтмен против Супермена: На заре справедливости можно заделать расширенную версию!pb.wtf



    Дорогой пользователь! Огромная просьба, поблагодарите релизера, оцените раздачу и оставьте свои комментарий, если Вы скачали Лига справедливости через торрент бесплатно! Внесите свою лепту в развитие PiratBit!
    Комментировать посты могут только пользователи прошедшие не сложную регистрацию
    Показать сообщения:    

    Лига справедливости через торрент
    Скачать бесплатно Лига справедливости
    Лига справедливости скачать торрент
    Лига справедливости смотреть онлайн
    Cкачать фильм Лига справедливости бесплатно
    Лига справедливости скачать торрент в хорошем качестве
    Лига справедливости смотреть онлайн бесплатно в хорошем качестве


    Вы не можете начинать темы
    Вы не можете отвечать на сообщения
    Вы не можете редактировать свои сообщения
    Вы не можете удалять свои сообщения
    Вы не можете голосовать в опросах
    Вы не можете прикреплять файлы к сообщениям
    Вы можете скачивать файлы