Ссылка на приватное зеркало нашего сайта всего за 1$. Внимание количество ограничено!!!

2 сезон

iTunes

1 сезон

1

2 сезон

2 сезон

iTunes

1 сезон

RePack

30

Ultimate

ВАЖНО

ИГРА 18+

pack

RePack

MK11
pack

Забери бонус

RePack

jed

!!Акция!!

Alien_Rage

RePack

fifa19

RePack

Assassins Creed: Odyssey

RePack

NEED FOR SPEED™ PAYBACK

4 сезон

9 сезон

Бесстыжие 9 сезон

Все сериалы

все сериалы на PB.wtf

RePack

FAR CRY 5
  

Никогда, редко, иногда, всегда / Never Rarely Sometimes Always (Элиза Хиттман) [2020, Драма, WEB-DL 1080p] DUB [Пифагор] pb.wtf

Никогда, редко, иногда, всегда через торрент pb.wtf

Раздают: 4 [ 0 KB/s ]
Размер: 7.32 GB | Добавлен: 23 д. назад | Торрент скачан:65 раз
Скачать  

03-11-2020 17:48 Никогда, редко, иногда, всегда Скачать торрент  

Никогда, редко, иногда, всегда | Never Rarely Sometimes Always
Год выпуска: 2020
Страна: Великобритания, США
Выпущено: BBC Films, Cinereach, Mutressa Movies
Жанр: Драма
Продолжительность: 01:40:56
Перевод: Дублированный | Пифагор
Субтитры: Английские (Full, SDH)

Режиссер: Элиза Хиттман

rating

В ролях: Сидни Фланиган, Талия Райдер, Теодор Пеллерен, Райан Эгголд, Шэрон Ван Эттен, Келли Чепмен, Ким Риос Лин, Дрю Зельцер, Каролина Эспиро, Элиасар Хименес

Описание: Легко ли быть девушкой в современном мире? Кто придет на помощь, если ты попадешь в беду? Как решиться на отчаянный поступок, который навсегда изменит твою жизнь? Сложные, порой нежеланные ответы на эти и многие другие вопросы о взрослении найдут сестры Отем и Скайлар на пути из родного городка в Нью-Йорк.

Качество: WEB-DL 1080p
Формат: MKV

Видео: MPEG-4 AVC, 10.0 Mb/s, 1920x1040, 23, 976 fps
Аудио#1 Russian: 48 kHz, AC3 Dolby Digital, 2/0 (L, R) ch, ~192 Kbps | DUB | Пифагор
Аудио#2 English: 48 kHz, Enhanced AC3 Dolby Digital, 3/2 (L, C, R, l, r) + LFE ch, ~640 Kbps | Original
скриншот  скриншот  скриншот  скриншот  

Complete name : Nikogda.Redko.Inogda.Vsegda.2O2O.WEB-DL.1O8Op.ELEKTRI4KA.UNIONGANG.mkv
Format : Matroska
Format version : Version 4 / Version 2
File size : 7.32 GiB
Duration : 1 h 40 min
Overall bit rate : 10.4 Mb/s
Encoded date : UTC 2020-11-02 22:17:14
Writing application : mkvmerge v8.3.0 ('Over the Horizon') 64bit
Writing library : libebml v1.3.1 + libmatroska v1.4.2

Video
ID : 1
Format : AVC
Format/Info : Advanced Video Codec
Format profile : High@L4
Format settings, CABAC : Yes
Format settings, Reference frames : 4 frames
Codec ID : V_MPEG4/ISO/AVC
Duration : 1 h 40 min
Bit rate mode : Constant
Bit rate : 10 000 kb/s
Width : 1 920 pixels
Height : 1 040 pixels
Display aspect ratio : 1.85:1
Frame rate mode : Constant
Frame rate : 23.976 (24000/1001) FPS
Color space : YUV
Chroma subsampling : 4:2:0
Bit depth : 8 bits
Scan type : Progressive
Bits/(Pixel*Frame) : 0.209
Stream size : 6.73 GiB (92%)
Default : Yes
Forced : No
Color range : Limited
Color primaries : BT.709
Transfer characteristics : BT.709
Matrix coefficients : BT.709

Audio #1
ID : 2
Format : AC-3
Format/Info : Audio Coding 3
Mode extension : CM (complete main)
Format settings, Endianness : Big
Codec ID : A_AC3
Duration : 1 h 40 min
Bit rate mode : Constant
Bit rate : 192 kb/s
Channel(s) : 2 channels
Channel positions : Front: L R
Sampling rate : 48.0 kHz
Frame rate : 31.250 FPS (1536 spf)
Bit depth : 16 bits
Compression mode : Lossy
Stream size : 139 MiB (2%)
Title : Dub (Pifagor)
Language : Russian
Default : Yes
Forced : No

Audio #2
ID : 3
Format : E-AC-3
Format/Info : Enhanced Audio Coding 3
Format settings, Endianness : Big
Codec ID : A_EAC3
Duration : 1 h 40 min
Bit rate mode : Constant
Bit rate : 640 kb/s
Channel(s) : 6 channels
Channel positions : Front: L C R, Side: L R, LFE
Sampling rate : 48.0 kHz
Frame rate : 187.500 FPS (256 spf)
Compression mode : Lossy
Stream size : 462 MiB (6%)
Title : Original
Language : English
Default : No
Forced : No

Text #1
ID : 4
Format : UTF-8
Codec ID : S_TEXT/UTF8
Codec ID/Info : UTF-8 Plain Text
Duration : 1 h 39 min
Bit rate : 32 b/s
Count of elements : 884
Stream size : 23.9 KiB (0%)
Language : English
Default : No
Forced : No

Text #2
ID : 5
Format : UTF-8
Codec ID : S_TEXT/UTF8
Codec ID/Info : UTF-8 Plain Text
Duration : 1 h 39 min
Bit rate : 40 b/s
Count of elements : 1186
Stream size : 29.7 KiB (0%)
Title : SDH
Language : English
Default : No
Forced : No

Menu
00:00:00.000 : en:Studio Logo
00:00:40.000 : en:Talent show at school
00:03:04.000 : en:Title Sequence
00:03:14.000 : en:After the talent show
00:04:34.000 : en:Autumn comes back to home
00:05:57.000 : en:Before school in the morning
00:07:21.000 : en:Autumn goes to test facility
00:11:38.000 : en:Autumn get a new thing
00:14:45.000 : en:Skylar talks to Autumn
00:17:25.000 : en:Ted watches TV
00:18:35.000 : en:Autumn doesn't know what she wants to do
00:22:13.000 : en:she checks up abortion
00:25:00.000 : en:Autumn does not feel good
00:28:15.000 : en:Autumn stays with Skylar
00:30:48.000 : en:The girls take a bus
00:34:29.000 : en:Jasper talks to Skylar
00:36:59.000 : en:The girls get in NY
00:39:25.000 : en:Autumn takes another test
00:44:47.000 : en:The girls are at train station
00:48:09.000 : en:The girls spend night at outside
00:52:20.000 : en:Autumn meets Kelly
01:04:39.000 : en:They don't have enough money
01:08:59.000 : en:Jasper comes to the girls
01:16:44.000 : en:Autumn calls her mother
01:20:33.000 : en:The girls need bus tickets
01:22:19.000 : en:Autumn looks for Skylar
01:26:12.000 : en:Autumn has the surgery
01:30:09.000 : en:Skylar asks questions
01:33:11.000 : en:The girls are on the bus
01:35:58.000 : en:End Credits

pb.wtf



Скачать Никогда, редко, иногда, всегда через торрент https://i3.imageban.ru/out/2020/11/03/9e9d2bab676864f3a04da09cf5086920.png Скачать фильм Никогда, редко, иногда, всегда через торрент бесплантно в хорошем качестве Описание: Легко ли быть девушкой в современном мире? Кто придет на помощь, если ты попадешь в беду? Как решиться на отчаянный поступок, ... 8.5 10 8
Торрент: Зарегистрирован [2020-11-03 17:48] · скачан: 65 раз
Статус: √ проверено
Размер: 7.32 GB
Как cкачать? Как скачать Никогда, редко, иногда, всегда через торрент | qTorrent

28-11-2019 20:33  

Отключить всю рекламу на сайте

04-11-2020 12:48 Никогда, редко, иногда, всегда Скачать торрент  

Самое отстойное, что я видел в этом году. Рейтинг специально накручен. Пустой идиотский фильм. Замысел один- внушить, что аборт это хорошо и нормально. Планирование семьи-отличная организация. Если раньше все было наоборот и в конце фильмов девушки передумывали делать аборт, то тут спокойно не парясь как сходила в магазин. И весь фильм об этом, т.е. как малолетки сбежали и поехали в нью-йорк делать аборт. ВСЕ! Больше ни о чем! Не тратьте время на это д*рьмоpb.wtf



04-11-2020 14:40 Никогда, редко, иногда, всегда Скачать торрент  

kosrv писал(а):

Самое отстойное, что я видел в этом году. Рейтинг специально накручен. Пустой идиотский фильм. Замысел один- внушить, что аборт это хорошо и нормально. Планирование семьи-отличная организация. Если раньше все было наоборот и в конце фильмов девушки передумывали делать аборт, то тут спокойно не парясь как сходила в магазин. И весь фильм об этом, т.е. как малолетки сбежали и поехали в нью-йорк делать аборт. ВСЕ! Больше ни о чем! Не тратьте время на это д*рьмо

спс pb.wtf



20-11-2020 16:48 Никогда, редко, иногда, всегда Скачать торрент  

kosrv писал(а):

Самое отстойное, что я видел в этом году. Рейтинг специально накручен. Пустой идиотский фильм. Замысел один- внушить, что аборт это хорошо и нормально. Планирование семьи-отличная организация. Если раньше все было наоборот и в конце фильмов девушки передумывали делать аборт, то тут спокойно не парясь как сходила в магазин. И весь фильм об этом, т.е. как малолетки сбежали и поехали в нью-йорк делать аборт. ВСЕ! Больше ни о чем! Не тратьте время на это д*рьмо

Огромное спасибо.pb.wtf



    Дорогой пользователь! Огромная просьба, поблагодарите релизера, оцените раздачу и оставьте свои комментарий, если Вы скачали Никогда, редко, иногда, всегда через торрент бесплатно! Внесите свою лепту в развитие PiratBit!
    Комментировать посты могут только пользователи прошедшие не сложную регистрацию
    Показать сообщения:    

    Никогда, редко, иногда, всегда через торрент
    Скачать бесплатно Никогда, редко, иногда, всегда
    Никогда, редко, иногда, всегда скачать торрент
    Никогда, редко, иногда, всегда смотреть онлайн
    Cкачать фильм Никогда, редко, иногда, всегда бесплатно
    Никогда, редко, иногда, всегда скачать торрент в хорошем качестве
    Никогда, редко, иногда, всегда смотреть онлайн бесплатно в хорошем качестве


    Вы не можете начинать темы
    Вы не можете отвечать на сообщения
    Вы не можете редактировать свои сообщения
    Вы не можете удалять свои сообщения
    Вы не можете голосовать в опросах
    Вы не можете прикреплять файлы к сообщениям
    Вы можете скачивать файлы