2 сезон

iTunes

MVO

1

2 сезон

iTunes

iTunes

1 сезон

RePack

30

Ultimate

ВАЖНО

ИГРА 18+

pack

RePack

MK11
pack

Легкие деньги

RePack

jed

RePack

fifa19

RePack

RDR2

RePack

NEED FOR SPEED™ PAYBACK

4 сезон

9 сезон

Бесстыжие 9 сезон

Все сериалы

все сериалы на PB.wtf

RePack

FAR CRY 5

Anonymous, добрый вечер, мы не успеваем собрать деньги на оплату серверов за декабрь и январь, помогите нам пожалуйста в это трудное время. В качестве благодарности мы отключим Вам всю рекламу на сайте (укажите свой ник в строку Ваше имя)!

×
  
Magnet ссылка

Игра теней / Театр теней / Shadowplay / Сезон: 1 / Серии: 1-8 из 8 (Монс Морлинд, Бьёрн Стейн) [2020, Триллер, драма, WEB-DLRip-AVC] MVO [Novamedia] pb.wtf

Игра теней через торрент pb.wtf

Раздают: 1 [ 0 KB/s ]
Размер: 5.95 GB | Добавлен: 2 мес. 11 д. назад | Торрент скачан:19 раз
Скачать  

04-11-2020 02:11 Игра теней Скачать торрент  

Игра теней | Театр теней | Shadowplay
Год выпуска: 2020
Страна: Канада
Студия: BRON Studios, Tandem Productions, Film United
Жанр: Триллер, драма
Продолжительность: ~ 00:55:00 серия
Перевод: Профессиональный (многоголосый) | Novamedia по заказу море тв
Субтитры: Русские (Forced) на немецкую речь (вшитые)

Режиссер: Монс Морлинд, Бьёрн Стейн

rating

В ролях: Тейлор Китч, Логан Маршалл-Грин, Нина Хосс, Максимилиан Эренрич, Таппенс Мидлтон, Себастьян Кох, Мала Эмде, Анна Ратте-Полле, Майкл С. Холл, Лена Дерри

Описание: 1946 год, Берлин все еще погружен в хаос после окончания Второй мировой войны. Чтобы помочь восстановить порядок и организовать полицейский участок, в город приезжает опытный американский детектив Макс МакЛоклин. На самом деле его миссия — поймать Вернера Гладова, местного Аль Капоне, чья банда терроризирует растерзанный войной город. Параллельно с этим Макс в тайне от начальства пытается отыскать своего пропавшего брата, который охотится на бывших нацистов, скрывающихся от правосудия. Но кто хуже нацистов? Только тот, кто им помогает.

Качество: WEB-DLRip-AVC
Формат: MKV

Видео: 1535 Кбит/сек, 1024*438 (2,35:1), в 25,000 кадров/сек, AVC
Аудио: 384 Кбит/сек, 48,0 КГц, 16 бит, 2 канала, AC-3

Общее
Уникальный идентификатор : 45027180882287500726303592208403306788 (0x21DFEB6AB9C28D4D417C84469F8C9924)
Полное имя : F:\Игра теней (Shadowplay) Сезон 1\Shadowplay.S01.E01.2020.WEB-DLRip-AVC.Novamedia.mkv
Формат : Matroska
Версия формата : Version 4
Размер файла : 742 Мбайт
Продолжительность : 53 м. 0 с.
Общий поток : 1958 Кбит/сек
Программа кодирования : XviD4PSP 8.0.59
Библиотека кодирования : Lavf58.20.100
ErrorDetectionType : Per level 1
ENCODING_INFO : MATROSKA,WEBM > MKV Пользовательский

Видео
Идентификатор : 1
Формат : AVC
Формат/Информация : Advanced Video Codec
Профиль формата : High@L3.1
Настройки формата : CABAC / 4 Ref Frames
Параметр CABAC формата : Да
Параметр RefFrames формата : 4 кадра
Идентификатор кодека : V_MPEG4/ISO/AVC
Продолжительность : 53 м. 0 с.
Битрейт : 1535 Кбит/сек
Номинальный битрейт : 1800 Кбит/сек
Ширина : 1024 пикселя
Высота : 438 пикселей
Соотношение сторон : 2,35:1
Режим частоты кадров : Постоянный
Частота кадров : 25,000 кадров/сек
Цветовое пространство : YUV
Субдискретизация насыщенности : 4:2:0
Битовая глубина : 8 бит
Тип развёртки : Прогрессивная
Бит/(Пиксели*Кадры) : 0.137
Размер потока : 582 Мбайт (78%)
Библиотека кодирования : x264 core 157 r2969 d4099dd
Настройки программы : cabac=1 / ref=3 / deblock=1:-1:-1 / analyse=0x3:0x133 / me=hex / subme=7 / psy=1 / psy_rd=1.00:0.20 / mixed_ref=1 / me_range=16 / chroma_me=1 / trellis=1 / 8x8dct=1 / cqm=0 / deadzone=21,11 / fast_pskip=1 / chroma_qp_offset=-3 / threads=9 / lookahead_threads=1 / sliced_threads=0 / nr=0 / decimate=1 / interlaced=0 / bluray_compat=0 / constrained_intra=0 / bframes=3 / b_pyramid=2 / b_adapt=2 / b_bias=0 / direct=3 / weightb=1 / open_gop=0 / weightp=2 / keyint=250 / keyint_min=25 / scenecut=40 / intra_refresh=0 / rc_lookahead=40 / rc=cbr / mbtree=1 / bitrate=1800 / ratetol=1.0 / qcomp=0.60 / qpmin=0 / qpmax=69 / qpstep=4 / vbv_maxrate=1800 / vbv_bufsize=1285 / nal_hrd=none / filler=0 / ip_ratio=1.40 / aq=1:1.00
Язык : English
Default : Да
Forced : Нет
Цветовой диапазон : Limited
Основные цвета : BT.709
Характеристики трансфера : BT.709
Коэффициенты матрицы : BT.709
ENCODING_INFO : H264 > X264 CBR 1800kbps HQ

Аудио
Идентификатор : 2
Формат : AC-3
Формат/Информация : Audio Coding 3
Коммерческое название : Dolby Digital
Идентификатор кодека : A_AC3
Продолжительность : 53 м. 0 с.
Вид битрейта : Постоянный
Битрейт : 384 Кбит/сек
Каналы : 2 канала
ChannelLayout : L R
Частота : 48,0 КГц
Частота кадров : 31,250 кадров/сек (1536 SPF)
Битовая глубина : 16 бит
Метод сжатия : С потерями
Размер потока : 146 Мбайт (20%)
Язык : Russian
ServiceKind/String : Complete Main
Default : Да
Forced : Нет
ENCODING_INFO : AC3 > AC3 CBR 384kbps

Скриншоты:
скриншот   скриншот   скриншот   скриншот   скриншот   скриншот   скриншот  
скриншот  
pb.wtf



Скачать Игра теней через торрент https://b.radikal.ru/b25/2010/16/2bd976a3ff0d.jpg Скачать фильм Игра теней через торрент бесплантно в хорошем качестве Описание: 1946 год, Берлин все еще погружен в хаос после окончания Второй мировой войны. Чтобы помочь восстановить порядок и организовать ... 10 10 2
Info! Золотая раздача, скачанное не засчитывается.
Торрент: Зарегистрирован [2020-11-04 02:11] · скачан: 19 раз
Статус: √ проверено
Размер: 5.95 GB
Как cкачать? Как скачать Игра теней через торрент | UTorrent

% Раздел Тема Автор DL S | L
Зарубежные сериалы [ 11.3 GB ] Игра теней / Театр теней / Shadowplay / Сезон: 1 / Серии: 1-8 из 8 [2020 WEB-DL 1080p] MVO [Novamedia] bober100 Скачать
1 | 0

28-11-2019 20:33  

Отключить всю рекламу на сайте

    Дорогой пользователь! Огромная просьба, поблагодарите релизера, оцените раздачу и оставьте свои комментарий, если Вы скачали Игра теней через торрент бесплатно! Внесите свою лепту в развитие PiratBit!
    Комментировать посты могут только пользователи прошедшие не сложную регистрацию
    Показать сообщения:    

    Игра теней через торрент
    Скачать бесплатно Игра теней
    Игра теней скачать торрент
    Игра теней смотреть онлайн
    Cкачать фильм Игра теней бесплатно
    Игра теней скачать торрент в хорошем качестве
    Игра теней смотреть онлайн бесплатно в хорошем качестве


    Вы не можете начинать темы
    Вы не можете отвечать на сообщения
    Вы не можете редактировать свои сообщения
    Вы не можете удалять свои сообщения
    Вы не можете голосовать в опросах
    Вы не можете прикреплять файлы к сообщениям
    Вы можете скачивать файлы