1 сезон

1 сезон

iTunes

1

iTunes

Кинопоиск HD

iTunes

13

1 сезон

RePack

30

Deluxe

ВАЖНО

ИГРА 18+

pack

RePack

MK11
pack

Легкие деньги

RePack

jed

RePack

fifa19

RePack

RDR2

RePack

NEED FOR SPEED™ PAYBACK

4 сезон

9 сезон

Бесстыжие 9 сезон

Все сериалы

все сериалы на PB.wtf

RePack

FAR CRY 5
  
Magnet ссылка

257 причин, чтобы жить / Сезон: 2 / Серии: 1-13 из 13 (Максим Свешников) [2020, Драма, комедия, WEBRip-AVC, (Версия 18+)] pb.wtf

257 причин, чтобы жить через торрент pb.wtf

Раздают: 1 [ 0 KB/s ]
Размер: 3.94 GB | Добавлен: 3 мес. 23 д. назад | Торрент скачан:73 раза
Скачать  

04-11-2020 04:18 257 причин, чтобы жить Скачать торрент  

257 причин, чтобы жить - 2
Год выпуска: 2020
Страна: Россия
Выпущено: START STUDIO, СУПЕР продакшн, Киностудия "Yellow, Black and White"
Жанр: Драма, комедия
Продолжительность: ~ 00:25:00
Субтитры: отсутствуют
Версия 18+. Внимание! Присутствует ненормативная лексика.

Режиссер: Максим Свешников

rating

В ролях: Полина Максимова, Анна Невская, Сергей Годин, Роман Маякин, Анастасия Попова (II), Дарья Руденок, Егор Корешков, Мария Фомина, Юлия Топольницкая, Максим Лагашкин, Тимоти Сэлл, Маргарита Дьяченкова

Описание: Женя Короткова противостояла серьёзной болезни целых три года и наконец победила в неравной битве. Она получила шанс исполнить все заветные желания из своего дневника: прыгнуть с тарзанки, научиться водить машину, выучить испанский и найти свою половинку. За год в жизни появилась новая любовь — Максим, красивый и успешный парень, с которым она познакомилась на Бали и собралась в путешествие по Европе. Женя возвращается в Москву, чтобы увидеть племянника и повидать подруг, и не планирует задерживаться больше, чем на пару дней. Но неожиданные обстоятельства спутают все её планы. Отзывчивая Женя не может пройти мимо беды и рискует угодить в водоворот проблем своих родных и друзей. В жизнь Коротковой возвращается всё её прошлое, включая Константина. Всё это время он хранил у себя блокнот Жени в надежде, что её самое главное желание связано с ним. А отец Жени, который бросил семью много лет назад, рассчитывает, что родные дочери примут его и будут о нём заботиться. Сестра Соня, которая в отличие от Жени не готова простить отца, своими руками рушит успешную карьеру блогера и свою семейную жизнь. Жене предстоит встретиться лицом к лицу со своим прошлым, преодолеть страхи и сомнения и выполнить самые важные желания, чтобы стать по-настоящему счастливой и любимой.

Качество: WEBRip-AVC
Формат: MKV

Видео: MPEG-4 AVC, ~ 1600 Кбит/с, 1024x432, 25 кадр/с
Аудио: 48.0 kHz, AC3 Dolby Digital, 2/0 (L,R) ch, ~ 192 kbps
скриншот  скриншот  скриншот  скриншот  скриншот  

General
Unique ID : 247125767052713292083991497029874743408 (0xB9EAB104CF6C349F9DAF7E992275F870)
Complete name : F:\257 причин, чтобы жить.S02.(2020).WEBRip.(AVC).Files-x\01.257.prichin.chtoby.zhit.s02.(2020).WEBRip.(AVC).by.Серый1779.Files-x.mkv
Format : Matroska
Format version : Version 2
File size : 334 MiB
Duration : 26 min 4 s
Overall bit rate : 1 792 kb/s
Encoded date : UTC 2020-11-03 23:45:55
Writing application : mkvmerge v7.8.0 ('River Man') 32bit built on Apr 3 2015 12:11:22
Writing library : libebml v1.3.1 + libmatroska v1.4.2

Video
ID : 1
Format : AVC
Format/Info : Advanced Video Codec
Format profile : High@L4.1
Format settings : CABAC / 9 Ref Frames
Format settings, CABAC : Yes
Format settings, RefFrames : 9 frames
Codec ID : V_MPEG4/ISO/AVC
Duration : 26 min 4 s
Bit rate : 1 600 kb/s
Width : 1 024 pixels
Height : 432 pixels
Display aspect ratio : 2.40:1
Frame rate mode : Constant
Frame rate : 25.000 FPS
Color space : YUV
Chroma subsampling : 4:2:0
Bit depth : 8 bits
Scan type : Progressive
Bits/(Pixel*Frame) : 0.145
Stream size : 292 MiB (87%)
Writing library : x264 core 146 r2538 121396c
Encoding settings : cabac=1 / ref=9 / deblock=1:-2:-1 / analyse=0x3:0x133 / me=umh / subme=9 / psy=1 / psy_rd=1.00:0.15 / mixed_ref=1 / me_range=32 / chroma_me=1 / trellis=2 / 8x8dct=1 / cqm=0 / deadzone=21,11 / fast_pskip=0 / chroma_qp_offset=-3 / threads=18 / lookahead_threads=3 / sliced_threads=0 / nr=0 / decimate=1 / interlaced=0 / bluray_compat=0 / constrained_intra=0 / bframes=9 / b_pyramid=2 / b_adapt=2 / b_bias=0 / direct=1 / weightb=1 / open_gop=0 / weightp=2 / keyint=250 / keyint_min=25 / scenecut=40 / intra_refresh=0 / rc=2pass / mbtree=0 / bitrate=1600 / ratetol=1.0 / qcomp=0.60 / qpmin=0 / qpmax=69 / qpstep=4 / cplxblur=20.0 / qblur=0.5 / ip_ratio=1.40 / pb_ratio=1.30 / aq=2:1.00
Default : Yes
Forced : No
Color range : Limited
Color primaries : BT.709
Transfer characteristics : BT.709
Matrix coefficients : BT.709

Audio
ID : 2
Format : AC-3
Format/Info : Audio Coding 3
Format settings, Endianness : Big
Codec ID : A_AC3
Duration : 26 min 4 s
Bit rate mode : Constant
Bit rate : 192 kb/s
Channel(s) : 2 channels
Channel positions : Front: L R
Sampling rate : 48.0 kHz
Frame rate : 31.250 FPS (1536 SPF)
Bit depth : 16 bits
Compression mode : Lossy
Stream size : 35.8 MiB (11%)
Service kind : Complete Main
Default : Yes
Forced : No

При каждом добавлении создаётся новый торрент. Чтобы начать докачку новой серии, пользователям необходимо сделать следующее:
- остановить скачивание;
- удалить старый торрент у себя из клиента (старые серии удалять не надо);
- скачать новый торрент и запустить его у себя в клиенте вместо старого, при этом указать клиенту путь в старую папку, куда и должно происходить скачивание новых серий.
pb.wtf



Скачать 257 причин, чтобы жить через торрент http://d.radikal.ru/d35/2011/5e/08a97e70cca3.jpg Скачать фильм 257 причин, чтобы жить через торрент бесплантно в хорошем качестве Описание: Женя Короткова противостояла серьёзной болезни целых три года и наконец победила в неравной битве. Она получила шанс исполнить ... 10 10 6
Торрент: Зарегистрирован [2021-01-21 15:49] · скачан: 73 раз
Статус: √ проверено
Размер: 3.94 GB
Как cкачать? Как скачать 257 причин, чтобы жить через торрент | UTorrent

% Раздел Тема Автор DL S | L
Наши сериалы [ 61.24 GB ] 257 причин чтобы жить / Сезон: 2 / Серии: 1-13 из 13 [2020 WEBRip 2160p ] bober100 Скачать
1 | 2
Наши сериалы [ 14.48 GB ] 257 причин чтобы жить / Сезон: 2 / Серии: 1-13 из 13 [2020 WEBRip 1080p ] bober100 Скачать
2 | 0
Наши сериалы [ 4.45 GB ] 257 причин чтобы жить / Сезон: 2 / Серии: 1-13 из 13 [2020 WEBRip] GEKADOL Скачать
2 | 1

28-11-2019 20:33  

Отключить всю рекламу на сайте

    Дорогой пользователь! Огромная просьба, поблагодарите релизера, оцените раздачу и оставьте свои комментарий, если Вы скачали 257 причин, чтобы жить через торрент бесплатно! Внесите свою лепту в развитие PiratBit!
    Комментировать посты могут только пользователи прошедшие не сложную регистрацию
    Показать сообщения:    

    257 причин, чтобы жить через торрент
    Скачать бесплатно 257 причин, чтобы жить
    257 причин, чтобы жить скачать торрент
    257 причин, чтобы жить смотреть онлайн
    Cкачать фильм 257 причин, чтобы жить бесплатно
    257 причин, чтобы жить скачать торрент в хорошем качестве
    257 причин, чтобы жить смотреть онлайн бесплатно в хорошем качестве


    Вы не можете начинать темы
    Вы не можете отвечать на сообщения
    Вы не можете редактировать свои сообщения
    Вы не можете удалять свои сообщения
    Вы не можете голосовать в опросах
    Вы не можете прикреплять файлы к сообщениям
    Вы можете скачивать файлы