1 сезон

1 сезон

iTunes

1

iTunes

Кинопоиск HD

iTunes

13

1 сезон

RePack

30

Deluxe

ВАЖНО

ИГРА 18+

pack

RePack

MK11
pack

Легкие деньги

RePack

jed

RePack

fifa19

RePack

RDR2

RePack

NEED FOR SPEED™ PAYBACK

4 сезон

9 сезон

Бесстыжие 9 сезон

Все сериалы

все сериалы на PB.wtf

RePack

FAR CRY 5
  
Magnet ссылка

257 причин, чтобы жить / Сезон: 2 / Серии: 1-13 из 13 (Максим Свешников) [2020, Драма, комедия, WEBRip 1080p, (Версия 18+)] pb.wtf

257 причин, чтобы жить через торрент pb.wtf

Раздают: 1 [ 0 KB/s ]
Размер: 14.48 GB | Добавлен: 3 мес. 23 д. назад | Торрент скачан:60 раз
Скачать  

04-11-2020 04:34 257 причин, чтобы жить Скачать торрент  

257 причин, чтобы жить - 2
Год выпуска: 2020
Страна: Россия
Выпущено: START STUDIO, СУПЕР продакшн, Киностудия "Yellow, Black and White"
Жанр: Драма, комедия
Продолжительность: ~ 00:25:00
Субтитры: отсутствуют
Версия 18+. Внимание! Присутствует ненормативная лексика.

Режиссер: Максим Свешников

rating

В ролях: Полина Максимова, Анна Невская, Сергей Годин, Роман Маякин, Анастасия Попова (II), Дарья Руденок, Егор Корешков, Мария Фомина, Юлия Топольницкая, Максим Лагашкин, Тимоти Сэлл, Маргарита Дьяченкова

Описание: Женя Короткова противостояла серьёзной болезни целых три года и наконец победила в неравной битве. Она получила шанс исполнить все заветные желания из своего дневника: прыгнуть с тарзанки, научиться водить машину, выучить испанский и найти свою половинку. За год в жизни появилась новая любовь — Максим, красивый и успешный парень, с которым она познакомилась на Бали и собралась в путешествие по Европе. Женя возвращается в Москву, чтобы увидеть племянника и повидать подруг, и не планирует задерживаться больше, чем на пару дней. Но неожиданные обстоятельства спутают все её планы. Отзывчивая Женя не может пройти мимо беды и рискует угодить в водоворот проблем своих родных и друзей. В жизнь Коротковой возвращается всё её прошлое, включая Константина. Всё это время он хранил у себя блокнот Жени в надежде, что её самое главное желание связано с ним. А отец Жени, который бросил семью много лет назад, рассчитывает, что родные дочери примут его и будут о нём заботиться. Сестра Соня, которая в отличие от Жени не готова простить отца, своими руками рушит успешную карьеру блогера и свою семейную жизнь. Жене предстоит встретиться лицом к лицу со своим прошлым, преодолеть страхи и сомнения и выполнить самые важные желания, чтобы стать по-настоящему счастливой и любимой.

Качество: WEBRip 1080p
Формат: MKV

Видео: MPEG-4 AVC, ~ 6398 Кбит/с, 1920x1080, 25 кадр/с
Аудио: 48.0 kHz, AC3 Dolby Digital, 2/0 (L,R) ch, ~ 192 kbps
скриншот  скриншот  скриншот  скриншот  

Общее
Уникальный идентификатор : 209117052984564053505491563372083902837 (0x9D527ABB6ECFA34EB7BFF57E110B7975)
Полное имя : C:\257.prichin.chtoby.zhit.S02.2020.WEB-DL.(1080p).Getty\257.prichin.chtoby.zhit.s02e01.2020.WEB-DL.(1080p).Getty.mkv
Формат : Matroska
Версия формата : Version 4
Размер файла : 1,20 Гбайт
Продолжительность : 26 м. 4 с.
Общий поток : 6592 Кбит/сек
Название фильма : 257.prichin.chtoby.zhit.s02e01.2020.WEB-DL.(1080p).Getty
Дата кодирования : UTC 2020-11-03 20:41:32
Программа кодирования : mkvmerge v7.8.0 ('River Man') 32bit built on Mar 27 2015 16:18:02
Библиотека кодирования : libebml v1.3.1 + libmatroska v1.4.2

Видео
Идентификатор : 1
Формат : AVC
Формат/Информация : Advanced Video Codec
Профиль формата : High@L4
Настройки формата : CABAC / 4 Ref Frames
Параметр CABAC формата : Да
Параметр RefFrames формата : 4 кадра
Идентификатор кодека : V_MPEG4/ISO/AVC
Продолжительность : 26 м. 4 с.
Битрейт : 6398 Кбит/сек
Ширина : 1920 пикселей
Высота : 1080 пикселей
Соотношение сторон : 16:9
Режим частоты кадров : Постоянный
Частота кадров : 25,000 кадров/сек
Цветовое пространство : YUV
Субдискретизация насыщенности : 4:2:0
Битовая глубина : 8 бит
Тип развёртки : Прогрессивная
Бит/(Пиксели*Кадры) : 0.121
Размер потока : 1,14 Гбайт (95%)
Default : Да
Forced : Нет
Цветовой диапазон : Limited
Основные цвета : BT.709
Характеристики трансфера : BT.709
Коэффициенты матрицы : BT.709

Аудио
Идентификатор : 2
Формат : AC-3
Формат/Информация : Audio Coding 3
Коммерческое название : Dolby Digital
Идентификатор кодека : A_AC3
Продолжительность : 26 м. 4 с.
Вид битрейта : Постоянный
Битрейт : 192 Кбит/сек
Каналы : 2 канала
ChannelLayout : L R
Частота : 48,0 КГц
Частота кадров : 31,250 кадров/сек (1536 SPF)
Битовая глубина : 16 бит
Метод сжатия : С потерями
Размер потока : 35,8 Мбайт (3%)
ServiceKind/String : Complete Main
Default : Да
Forced : Нет

При каждом добавлении создаётся новый торрент. Чтобы начать докачку новой серии, пользователям необходимо сделать следующее:
- остановить скачивание;
- удалить старый торрент у себя из клиента (старые серии удалять не надо);
- скачать новый торрент и запустить его у себя в клиенте вместо старого, при этом указать клиенту путь в старую папку, куда и должно происходить скачивание новых серий.
pb.wtf



Скачать 257 причин, чтобы жить через торрент http://d.radikal.ru/d35/2011/5e/08a97e70cca3.jpg Скачать фильм 257 причин, чтобы жить через торрент бесплантно в хорошем качестве Описание: Женя Короткова противостояла серьёзной болезни целых три года и наконец победила в неравной битве. Она получила шанс исполнить ... 10 10 11
Торрент: Зарегистрирован [2021-01-20 22:32] · скачан: 60 раз
Статус: √ проверено
Размер: 14.48 GB
Как cкачать? Как скачать 257 причин, чтобы жить через торрент | UTorrent

% Раздел Тема Автор DL S | L
Наши сериалы [ 61.24 GB ] 257 причин чтобы жить / Сезон: 2 / Серии: 1-13 из 13 [2020 WEBRip 2160p ] bober100 Скачать
1 | 2
Наши сериалы [ 3.94 GB ] 257 причин чтобы жить / Сезон: 2 / Серии: 1-13 из 13 [2020 WEBRip-AVC ] bober100 Скачать
2 | 0
Наши сериалы [ 4.45 GB ] 257 причин чтобы жить / Сезон: 2 / Серии: 1-13 из 13 [2020 WEBRip] GEKADOL Скачать
2 | 1

28-11-2019 20:33  

Отключить всю рекламу на сайте

    Дорогой пользователь! Огромная просьба, поблагодарите релизера, оцените раздачу и оставьте свои комментарий, если Вы скачали 257 причин, чтобы жить через торрент бесплатно! Внесите свою лепту в развитие PiratBit!
    Комментировать посты могут только пользователи прошедшие не сложную регистрацию
    Показать сообщения:    

    257 причин, чтобы жить через торрент
    Скачать бесплатно 257 причин, чтобы жить
    257 причин, чтобы жить скачать торрент
    257 причин, чтобы жить смотреть онлайн
    Cкачать фильм 257 причин, чтобы жить бесплатно
    257 причин, чтобы жить скачать торрент в хорошем качестве
    257 причин, чтобы жить смотреть онлайн бесплатно в хорошем качестве


    Вы не можете начинать темы
    Вы не можете отвечать на сообщения
    Вы не можете редактировать свои сообщения
    Вы не можете удалять свои сообщения
    Вы не можете голосовать в опросах
    Вы не можете прикреплять файлы к сообщениям
    Вы можете скачивать файлы