Всегда рабочее зеркало без VPN и Proxy просто перед .vidak.icu напиши любое слово или цифру, Пример http://zx0v.vidak.icu

iTunes

2 сезон

1 сезон

1

1 сезон

iTunes

2 сезон

13

1 сезон

Deluxe

pack

Рекомендуем

Пиратка

30

ВАЖНО

RePack

MK11

RePack

jed

RePack

fifa19

RePack

RDR2

RePack

NEED FOR SPEED™ PAYBACK

Кинопоиск HD

6 сезон

 Острые козырьки 6 сезон

Все сериалы

все сериалы на PB.wtf

RePack

FAR CRY 5

Anonymous, нам критически не хватает 5601 руб. на оплату серверов и переферии за Апрель, помоги нам пожалуйста, вся надежда только на тебя. В благодарность мы отключим тебе всю рекламу на сайте!

×
  
Magnet ссылка

Мандалорец / The Mandalorian / Сезон: 2 / Серии: 1-8 из 8 (Дебора Чоу, Рик Фамуйива, Дэйв Филони ) [2020, фантастика, боевик, приключения, WEB-DLRip] MVO [AMS] pb.wtf

Мандалорец через торрент pb.wtf

Размер: 6.49 GB | Добавлен: 1 год 5 мес. назад | Торрент скачан:195 раз
Смотреть онлайн Мандалорец | Скачать    Ребята, помогите собрать деньги на оплату серверов!!!

04-11-2020 04:41 Мандалорец Скачать торрент  

Мандалорец | The Mandalorian
«***»
Производство: США
Год выпуска: 2020
Студия: Fairview Entertainment, Walt Disney Studios
Жанр: фантастика, боевик, приключения
Продолжительность: ~ 00:52:00 серия
Премьера (мир): 12 ноября 2019
Перевод: Профессиональный (многоголосый закадровый) | AMS
Субтитры: Русские, английские

Режиссёр: Дебора Чоу, Рик Фамуйива, Дэйв Филони

В ролях: Педро Паскаль, Кайл Пацек, Брендан Уэйн, Бернард Баллен, Александра Гилман, Луис Ричард Гомес, Джамал Антар, Тейт Флетчер, Тони Табоада, Омид Абтахи и др.

Описание:
Одинокий мандалорец-наёмник живёт на краю обитаемой галактики, куда не дотягивается закон Новой Республики. Представитель некогда могучей расы благородных воинов теперь вынужден влачить жалкое существование среди отбросов общества.

rating

Качество: WEB-DLRip
Формат: | XviD | Avi

Видео: XviD, 720x304 (2,35:1), 23.976 кадров/сек, 2100 Кбит/сек
Аудио Rus: AC3, 48,0 kHz, 6 ch, 384 Кбит/сек | AMS
Аудио Eng: AC3, 48,0 kHz, 6 ch, 384 Кбит/сек | Original
скриншот  скриншот  скриншот  скриншот  

Общее
Полное имя : C:\The.Mandalorian.S02.400p.WEB-DLRip.AMS\The.Mandalorian.S02E01.400p.WEB-DLRip.AMS.avi
Формат : AVI
Формат/Информация : Audio Video Interleave
Размер файла : 1,06 Гбайт
Продолжительность : 52 м. 21 с.
Общий поток : 2886 Кбит/сек
Название фильма : The Mandalorian 2x01 - MVO AMS (vk.com/pro_ams) for Spin City
Программа кодирования : Lavf57.71.100

Видео
Идентификатор : 0
Формат : MPEG-4 Visual
Профиль формата : Advanced Simple@L5
Настройки формата : BVOP2 / GMC3 / QPel
Параметр BVOP формата : 2
Параметр QPel формата : Да
Параметр GMC формата : 3 точки перехода
Параметр матрицы формата : Default (H.263)
Идентификатор кодека : XVID
Идентификатор кодека/Подсказка : XviD
Продолжительность : 52 м. 20 с.
Битрейт : 1993 Кбит/сек
Ширина : 720 пикселей
Высота : 304 пикселя
Соотношение сторон : 2,35:1
Частота кадров : 23,976 (24000/1001) кадра/сек
Цветовое пространство : YUV
Субдискретизация насыщенности : 4:2:0
Битовая глубина : 8 бит
Тип развёртки : Прогрессивная
Метод сжатия : С потерями
Бит/(Пиксели*Кадры) : 0.380
Размер потока : 746 Мбайт (69%)
Заголовок : The Mandalorian 2x01 - MVO AMS (vk.com/pro_ams) for Spin City
Библиотека кодирования : XviD 69

Аудио #1
Идентификатор : 1
Формат : AC-3
Формат/Информация : Audio Coding 3
Коммерческое название : Dolby Digital
Идентификатор кодека : 2000
Продолжительность : 52 м. 21 с.
Вид битрейта : Постоянный
Битрейт : 384 Кбит/сек
Каналы : 6 каналов
ChannelLayout : L R C LFE Ls Rs
Частота : 48,0 КГц
Частота кадров : 31,250 кадров/сек (1536 SPF)
Битовая глубина : 16 бит
Метод сжатия : С потерями
Размер потока : 144 Мбайт (13%)
Выравнивание : Соединение по промежуткам
Заголовок : MVO AMS
ServiceKind/String : Complete Main

Аудио #2
Идентификатор : 2
Формат : AC-3
Формат/Информация : Audio Coding 3
Коммерческое название : Dolby Digital
Идентификатор кодека : 2000
Продолжительность : 52 м. 21 с.
Вид битрейта : Постоянный
Битрейт : 384 Кбит/сек
Каналы : 6 каналов
ChannelLayout : L R C LFE Ls Rs
Частота : 48,0 КГц
Частота кадров : 31,250 кадров/сек (1536 SPF)
Битовая глубина : 16 бит
Метод сжатия : С потерями
Размер потока : 144 Мбайт (13%)
Выравнивание : Соединение по промежуткам
Заголовок : Original
ServiceKind/String : Complete Main

Когда раздача ведётся путём добавления новых серий, при каждом добавлении создётся новый торрент. Чтобы начать докачку новой серии, пользователям необходимо сделать следующее:
(1) остановить скачивание,
(2) удалить старый торрент у себя из клиента (старые серии удалять не надо),
(3) скачать новый торрент и запустить его у себя в клиенте вместо старого, при этом указать клиенту путь в старую папку, куда и должно происходить скачивание новых серий.
Ваш клиент при этом должен произвести хеширование (проверку) старой папки (если не производит сам - помогите ему сделать это), и будет докачивать только те серии, которых у вас ещё нет. Старые серии при этом не удаляются, а продолжают раздаваться!
Eсли вы уже удалили старые серии, то предотвратить повторную закачку старых серий можно, отжав галочку в соответсвующих местах при запуске нового торрента. По возможности, желательно не удалять старые серии как можно дольше, чтобы релизёр не столько продолжал раздавать старые серии, а смог сконцентрироваться на новых.
pb.wtf



Скачать Мандалорец через торрент https://i114.fastpic.ru/big/2020/1101/1c/374137614b10cb4ccaa8ab506e058e1c.png?r=1 Скачать, смотреть онлайн Мандалорец бесплантно в хорошем качестве Описание:Одинокий мандалорец-наёмник живёт на краю обитаемой галактики, куда не дотягивается закон Новой Республики. Представитель некогда ... 10 10 6
Торрент: Зарегистрирован [2020-12-25 15:38] · скачан: 195 раз
Статус: √ проверено
Размер: 6.49 GB
Как cкачать? Как скачать Мандалорец через торрент | UTorrent

% Раздел Тема Автор DL S | L
Зарубежные сериалы [ 17.6 GB ] Мандалорец / The Mandalorian / Сезон: 2 / Серии: 1-8 из 8 [2020 WEB-DL 1080p] 6x[MVO] + [AV0] + [Ukr MVO] killermax2013 Скачать
3 | 0
Зарубежные сериалы [ 28.29 GB ] Мандалорец / The Mandalorian / Сезон: 2 / Серии: 1-8 из 8 [2020 WEB-DL 1080p] MVO [LostFilm] bober100 Скачать
1 | 0
Зарубежные сериалы [ 27.55 GB ] Мандалорец / The Mandalorian / Сезон: 2 / Серии: 1-8 из 8 [2020 WEB-DL 1080p] MVO [Jaskier] bober100 Скачать
1 | 0
Зарубежные сериалы [ 34.23 GB ] Мандалорец / The Mandalorian / Сезон: 2 / Серия: 1-8 из 8 [2020 WEB-DL 1080p] [MVO] killermax2013 Скачать
3 | 0
Зарубежные сериалы [ 15.08 GB ] Мандалорец / The Mandalorian / Сезон: 2 / Серии: 1-8 из 8 [2020 WEB-DL 720p] MVO [LostFilm] bober100 Скачать
1 | 0
Зарубежные сериалы [ 17.1 GB ] Мандалорец / The Mandalorian / Сезон: 2 / Серии: 1-8 из 8 [2020 WEBRip 720p] MVO [AlexFilm] bober100 Скачать
1 | 0
Зарубежные сериалы [ 60.2 GB ] Мандалорец / The Mandalorian / Сезон: 2 / Серии: 1-8 из 8 [2020 WEB-DL 2160p] 6xMVO +AVO bober100 Скачать
2 | 0


Последний раз редактировалось: bober100 (2020-12-25 15:38), всего редактировалось 3 раз(а)

28-11-2019 20:33  

Отключить всю рекламу на сайте

09-12-2020 08:23 Мандалорец Скачать торрент  

реклама присутствует?pb.wtf



    Дорогой пользователь! Огромная просьба, поблагодарите релизера, оцените раздачу и оставьте свои комментарий, если Вы скачали Мандалорец через торрент бесплатно!
    Комментировать посты могут только пользователи прошедшие не сложную регистрацию
    Показать сообщения:    

    Мандалорец через торрент
    Скачать бесплатно Мандалорец
    Мандалорец скачать торрент
    Мандалорец смотреть онлайн
    Cкачать фильм Мандалорец бесплатно
    Мандалорец скачать торрент в хорошем качестве
    Мандалорец смотреть онлайн бесплатно в хорошем качестве


    Вы не можете начинать темы
    Вы не можете отвечать на сообщения
    Вы не можете редактировать свои сообщения
    Вы не можете удалять свои сообщения
    Вы не можете голосовать в опросах
    Вы не можете прикреплять файлы к сообщениям
    Вы можете скачивать файлы