2 сезон

iTunes

MVO

1

2 сезон

iTunes

iTunes

1 сезон

RePack

30

Новинка

ВАЖНО

ИГРА 18+

pack

RePack

MK11
pack

Легкие деньги

RePack

jed

RePack

fifa19

RePack

RDR2

RePack

NEED FOR SPEED™ PAYBACK

4 сезон

9 сезон

Бесстыжие 9 сезон

Все сериалы

все сериалы на PB.wtf

RePack

FAR CRY 5

Anonymous, доброй ночи, мы не успеваем собрать деньги на оплату серверов за декабрь и январь, помогите нам пожалуйста в это трудное время. В качестве благодарности мы отключим Вам всю рекламу на сайте (укажите свой ник в строку Ваше имя)!

×
  
Magnet ссылка

Горец / Highlander (Рассел Малкэй) [1986 г., фэнтези, боевик, приключения, BDRip 720p / 60 FPS, Профессиональный (многоголосый)] от R.G. HD-Films pb.wtf

Горец через торрент pb.wtf

Раздают: 3 [ 0 KB/s ]
Размер: 4.71 GB | Добавлен: 2 мес. 23 д. назад | Торрент скачан:91 раз
Скачать  

04-11-2020 16:48 Горец Скачать торрент  

Горец / Highlander
Год выпуска: 1986
Страна: Великобритания
Жанр: фэнтези, боевик, приключения
Продолжительность: 01:56:38
Перевод: Профессиональный (многоголосый) (Video-BIZ)
Субтитры: Russian, English

Режиссер: Рассел Малкэй

Бюджет: $16 000 000
Премьера в мире: 7 марта 1986

rating

В ролях: Кристофер Ламберт, Шон Коннери, Роксэнн Харт, Клэнси Браун, Бети Эдни, Алан Норт, Джон Полито, Шила Гиш, Хью Куарши, Кристофер Малкольм

Описание: Коннор Маклауд — шотландец, который в 1536 году был сражен в битве, но мистическим образом воскрес, и родной клан изгнал его. Учителем Маклауда стал испанский дворянин, объяснивший, что он принадлежит к бессмертной расе воинов, которых можно лишить жизни, лишь обезглавив мечом…

Качество: BDRip 720p / 60 FPS
Формат: MKV
Видео кодек: H.264
Аудио кодек: AC3
Видео: x264, 1280 x 696 ( 1,85:1 ), 5392 kbps, 60,000 fps, ( 0.101 bpp)
Аудио#1: Русский, AC-3, 48.0 KHz, 6 ch, 384 Kbps MVO ( Video-BIZ )
Релиз от: Автор рипа: slaventi-69
x264 [info]: frame I:1710 Avg QP:19.85 size: 79597
x264 [info]: frame P:106110 Avg QP:20.61 size: 23511
x264 [info]: frame B:312108 Avg QP:22.67 size: 6684
x264 [info]: consecutive B-frames: 3.1% 3.9% 10.6% 16.5% 60.4% 5.5%


Общее
Уникальный идентификатор : 170352014390779273207537514416794028833 (0x80289AC474DEFC1BA6A272DC4024CB21)
Полное имя : F:\Highlander.(1986).BDRip.720p.(60 Fps).mkv
Формат : Matroska
Версия формата : Version 4
Размер файла : 4,71 Гбайт
Продолжительность : 1 ч. 56 м.
Общий поток : 5780 Кбит/сек
Название фильма : Горец / Highlander (1986) BDRip 720p (60 Fps)
Дата кодирования : UTC 2020-11-03 16:52:52
Программа кодирования : mkvmerge v9.1.0 ('Little Earthquakes') 64bit
Библиотека кодирования : libebml v1.3.3 + libmatroska v1.4.4

Видео
Идентификатор : 1
Формат : AVC
Формат/Информация : Advanced Video Codec
Профиль формата : High@L4.1
Настройки формата : CABAC / 8 Ref Frames
Параметр CABAC формата : Да
Параметр RefFrames формата : 8 кадров
Идентификатор кодека : V_MPEG4/ISO/AVC
Продолжительность : 1 ч. 56 м.
Битрейт : 5392 Кбит/сек
Ширина : 1280 пикселей
Высота : 696 пикселей
Соотношение сторон : 1,85:1
Режим частоты кадров : Постоянный
Частота кадров : 60,000 кадров/сек
Цветовое пространство : YUV
Субдискретизация насыщенности : 4:2:0
Битовая глубина : 8 бит
Тип развёртки : Прогрессивная
Бит/(Пиксели*Кадры) : 0.101
Размер потока : 4,39 Гбайт (93%)
Заголовок : slaventi-69 ( R.G. HD-Films | 60 fps )
Библиотека кодирования : x264 core 130 r2273 b3065e6
Настройки программы : cabac=1 / ref=8 / deblock=1:-1:-1 / analyse=0x3:0x113 / me=umh / subme=9 / psy=1 / psy_rd=1.00:0.00 / mixed_ref=1 / me_range=26 / chroma_me=1 / trellis=2 / 8x8dct=1 / cqm=0 / deadzone=21,11 / fast_pskip=1 / chroma_qp_offset=-2 / threads=6 / lookahead_threads=2 / sliced_threads=0 / nr=0 / decimate=1 / interlaced=0 / bluray_compat=0 / constrained_intra=0 / bframes=5 / b_pyramid=2 / b_adapt=2 / b_bias=0 / direct=2 / weightb=1 / open_gop=0 / weightp=2 / keyint=600 / keyint_min=60 / scenecut=40 / intra_refresh=0 / rc=crf / mbtree=0 / crf=19.3 / qcomp=0.60 / qpmin=0 / qpmax=69 / qpstep=4 / ip_ratio=1.40 / pb_ratio=1.30 / aq=1:1.00
Язык : English
Default : Да
Forced : Нет

Аудио
Идентификатор : 2
Формат : AC-3
Формат/Информация : Audio Coding 3
Коммерческое название : Dolby Digital
Идентификатор кодека : A_AC3
Продолжительность : 1 ч. 56 м.
Вид битрейта : Постоянный
Битрейт : 384 Кбит/сек
Каналы : 6 каналов
Channel layout : L R C LFE Ls Rs
Частота : 48,0 КГц
Частота кадров : 31,250 кадров/сек (1536 SPF)
Битовая глубина : 16 бит
Метод сжатия : С потерями
Задержка видео : 500 мс.
Размер потока : 320 Мбайт (7%)
Заголовок : MVO ( Video-BIZ )
Язык : Russian
ServiceKind/String : Complete Main
Default : Да
Forced : Нет

Текст #1
Идентификатор : 3
Формат : UTF-8
Идентификатор кодека : S_TEXT/UTF8
Идентификатор кодека/Информация : UTF-8 Plain Text
Продолжительность : 22 м. 56 с.
Битрейт : 3 бит/сек
ElementCount : 15
Размер потока : 606 байт (0%)
Язык : Russian
Default : Да
Forced : Да

Текст #2
Идентификатор : 4
Формат : UTF-8
Идентификатор кодека : S_TEXT/UTF8
Идентификатор кодека/Информация : UTF-8 Plain Text
Продолжительность : 1 ч. 52 м.
Битрейт : 46 бит/сек
ElementCount : 733
Размер потока : 38,2 Кбайт (0%)
Язык : Russian
Default : Нет
Forced : Нет

Текст #3
Идентификатор : 5
Формат : UTF-8
Идентификатор кодека : S_TEXT/UTF8
Идентификатор кодека/Информация : UTF-8 Plain Text
Продолжительность : 1 ч. 54 м.
Битрейт : 27 бит/сек
ElementCount : 735
Размер потока : 22,8 Кбайт (0%)
Язык : English
Default : Нет
Forced : Нет

Меню
00:00:00.000 : en:Main Titles/Operatic Overture
00:05:00.000 : en:The Last Time
00:10:00.000 : en:Future Exile
00:15:00.000 : en:Fish Out of Water
00:20:00.000 : en:Sheild Tampering
00:25:00.000 : en:On the Run
00:30:00.000 : en:Kiss of Death
00:35:00.000 : en:All the World's a Stage
00:40:00.000 : en:Clothes Make the Man
00:45:00.000 : en:Once Before I Die
00:50:00.000 : en:Speed Kills
00:55:00.000 : en:Launching the Sheild
01:00:00.000 : en:My Kind of Town
01:05:00.000 : en:On Holy Ground
01:10:00.000 : en:Immortal Embattled
01:15:00.000 : en:Greetings, Highlander
01:20:00.000 : en:Business As Usual
01:25:00.000 : en:Security Breach
01:30:00.000 : en:Full Measure of Life
01:35:00.000 : en:Above the Sheild
01:40:00.000 : en:Executive Decision Making
01:45:00.000 : en:There Can Be Only One
01:50:00.000 : en:Raising the Roof
01:55:00.000 : en:End Credits

Просьба к переливающим на другие сайты, в оформлении указывайте пожалуйста авторство группы R.G. HD-Films pb.wtf



Скачать Горец через торрент https://a.radikal.ru/a35/1909/30/1d40388371f9.jpg Скачать фильм Горец через торрент бесплантно в хорошем качестве Описание: Коннор Маклауд — шотландец, который в 1536 году был сражен в битве, но мистическим образом воскрес, и родной клан изгнал его. ... 9.9 10 7
Info! Золотая раздача, скачанное не засчитывается.
Торрент: Зарегистрирован [2020-11-04 16:48] · скачан: 91 раз
Статус: √ проверено
Размер: 4.71 GB
Как cкачать? Как скачать Горец через торрент | UTorrent

28-11-2019 20:33  

Отключить всю рекламу на сайте

    Дорогой пользователь! Огромная просьба, поблагодарите релизера, оцените раздачу и оставьте свои комментарий, если Вы скачали Горец через торрент бесплатно! Внесите свою лепту в развитие PiratBit!
    Комментировать посты могут только пользователи прошедшие не сложную регистрацию
    Показать сообщения:    

    Горец через торрент
    Скачать бесплатно Горец
    Горец скачать торрент
    Горец смотреть онлайн
    Cкачать фильм Горец бесплатно
    Горец скачать торрент в хорошем качестве
    Горец смотреть онлайн бесплатно в хорошем качестве


    Вы не можете начинать темы
    Вы не можете отвечать на сообщения
    Вы не можете редактировать свои сообщения
    Вы не можете удалять свои сообщения
    Вы не можете голосовать в опросах
    Вы не можете прикреплять файлы к сообщениям
    Вы можете скачивать файлы