2 сезон

iTunes

MVO

1

2 сезон

iTunes

1 сезон

1 сезон

RePack

30

Ultimate

ВАЖНО

ИГРА 18+

pack

RePack

MK11
pack

Легкие деньги

RePack

jed

RePack

fifa19

RePack

RDR2

RePack

NEED FOR SPEED™ PAYBACK

4 сезон

9 сезон

Бесстыжие 9 сезон

Все сериалы

все сериалы на PB.wtf

RePack

FAR CRY 5

Anonymous, добрый вечер, мы не успеваем собрать деньги на оплату серверов за декабрь и январь, помогите нам пожалуйста в это трудное время. В качестве благодарности мы отключим Вам всю рекламу на сайте (укажите свой ник в строку Ваше имя)!

×
  
Magnet ссылка

Восьмой класс / Eighth Grade (Бо Бёрнэм) [2018 г., Драма, комедия, HDRip-AVC] [MVO] [iTunes] от MediaBit pb.wtf

Восьмой класс через торрент pb.wtf

Раздают: 1 [ 33 KB/s ]
Размер: 1.45 GB | Добавлен: 2 мес. 23 д. назад | Торрент скачан:45 раз
Скачать  

04-11-2020 19:07 Восьмой класс Скачать торрент  


Восьмой класс / Eighth Grade
Информация о фильме:
Название: Восьмой класс
Оригинальное название: Eighth Grade
Год выхода: 2018
Жанр: Драма, комедия
Режиссер: Бо Бёрнэм
В ролях: Элси Фишер, Джош Хэмилтон, Эмили Робинсон, Джейк Шлойтер, Дэниэл Золгадри, Фред Хехингер, Имани Льюис, Люк Прэйл, Кэтрин Оливье, Нора Маллинс

Описание: 13-летняя Кейла переживает переходный период своей юности. Ей предстоит вынести еще одну неделю кошмарного восьмого класса и перейти в старшую школу — впрочем, и новая жизнь обещает много непредсказуемого.



Страна: США
Студия: A24
Продолжительность: 01:33:38
Перевод: Профессиональный (многоголосый, закадровый) - iTunes



Информация о файле:
Кодек: AVC
Формат: MKV
Качество: HDRip-AVC
Видео: MPEG-4 AVC, 1024x552 (1.85:1), 23.976 fps, 1837 kbps, 0.136
Аудио RU: AC3, 6 ch, 48 kHz, 384 kbps
Субтитры: Russian (Full) [by porcedllus], English (Full, SDH)
Навигация по главам: Да

x264 info: frame I:792 Avg QP:14.97 size: 70458
x264 info: frame P:30332 Avg QP:18.44 size: 20630
x264 info: frame B:103588 Avg QP:20.15 size: 5875
General
Unique ID : 97992796835075656524154828258082627527 (0x49B8B9E6A9CE45F19A0D72B5F9E51FC7)
Complete name : D:uTorrentРипы_от_wolf1245_MediaBitEighth Grade (2018) HDRip-AVC from wolf1245 & MediaBit.mkv
Format : Matroska
Format version : Version 4
File size : 1.45 GiB
Duration : 1 h 33 min
Overall bit rate : 2 223 kb/s
Movie name : Eighth Grade (2018) HDRip-AVC from wolf1245 & MediaBit
Encoded date : UTC 2020-11-04 18:57:26
Writing application : mkvmerge v51.0.0 ('I Wish') 64-bit
Writing library : libebml v1.4.0 + libmatroska v1.6.2
Video
ID : 1
Format : AVC
Format/Info : Advanced Video Codec
Format profile : High@L4.1
Format settings : CABAC / 12 Ref Frames
Format settings, CABAC : Yes
Format settings, Reference frames : 12 frames
Codec ID : V_MPEG4/ISO/AVC
Duration : 1 h 33 min
Bit rate : 1 837 kb/s
Width : 1 024 pixels
Height : 552 pixels
Display aspect ratio : 1.85:1
Frame rate mode : Constant
Frame rate : 23.976 (24000/1001) FPS
Color space : YUV
Chroma subsampling : 4:2:0
Bit depth : 8 bits
Scan type : Progressive
Bits/(Pixel*Frame) : 0.136
Stream size : 1.20 GiB (83%)
Title : wolf1245 & MediaBit
Writing library : x264 core 157 r2958 57baac4
Encoding settings : cabac=1 / ref=12 / deblock=1:-3:-3 / analyse=0x3:0x133 / me=umh / subme=11 / psy=1 / psy_rd=1.03:0.03 / mixed_ref=1 / me_range=48 / chroma_me=1 / trellis=2 / 8x8dct=1 / cqm=0 / deadzone=21,11 / fast_pskip=0 / chroma_qp_offset=-3 / threads=10 / lookahead_threads=2 / sliced_threads=0 / nr=0 / decimate=0 / interlaced=0 / bluray_compat=0 / constrained_intra=0 / bframes=12 / b_pyramid=2 / b_adapt=2 / b_bias=0 / direct=3 / weightb=1 / open_gop=0 / weightp=2 / keyint=240 / keyint_min=24 / scenecut=40 / intra_refresh=0 / rc_lookahead=100 / rc=2pass / mbtree=0 / bitrate=1837 / ratetol=1.0 / qcomp=0.60 / qpmin=0 / qpmax=69 / qpstep=4 / cplxblur=20.0 / qblur=0.5 / vbv_maxrate=50000 / vbv_bufsize=62500 / nal_hrd=none / filler=0 / ip_ratio=1.40 / pb_ratio=1.30 / aq=2:0.80
Language : English
Default : Yes
Forced : No
Audio
ID : 2
Format : AC-3
Format/Info : Audio Coding 3
Commercial name : Dolby Digital
Codec ID : A_AC3
Duration : 1 h 33 min
Bit rate mode : Constant
Bit rate : 384 kb/s
Channel(s) : 6 channels
Channel layout : L R C LFE Ls Rs
Sampling rate : 48.0 kHz
Frame rate : 31.250 FPS (1536 SPF)
Compression mode : Lossy
Stream size : 257 MiB (17%)
Title : MVO | iTunes
Language : Russian
Service kind : Complete Main
Default : Yes
Forced : No
Text #1
ID : 3
Format : UTF-8
Codec ID : S_TEXT/UTF8
Codec ID/Info : UTF-8 Plain Text
Duration : 1 h 30 min
Bit rate : 106 b/s
Count of elements : 1432
Stream size : 70.4 KiB (0%)
Title : Focs
Language : Russian
Default : No
Forced : No
Text #2
ID : 4
Format : UTF-8
Codec ID : S_TEXT/UTF8
Codec ID/Info : UTF-8 Plain Text
Duration : 1 h 30 min
Bit rate : 113 b/s
Count of elements : 1455
Stream size : 74.8 KiB (0%)
Title : porcellus
Language : Russian
Default : No
Forced : No
Text #3
ID : 5
Format : UTF-8
Codec ID : S_TEXT/UTF8
Codec ID/Info : UTF-8 Plain Text
Duration : 1 h 30 min
Bit rate : 67 b/s
Count of elements : 1451
Stream size : 44.3 KiB (0%)
Title : Full
Language : English
Default : No
Forced : No
Text #4
ID : 6
Format : UTF-8
Codec ID : S_TEXT/UTF8
Codec ID/Info : UTF-8 Plain Text
Duration : 1 h 30 min
Bit rate : 88 b/s
Count of elements : 1578
Stream size : 58.7 KiB (0%)
Title : SDH
Language : English
Default : No
Forced : No
Menu
00:00:00.000 : :(01)00:00:00:000
00:05:44.635 : :(02)00:05:44:635
00:11:00.534 : :(03)00:11:00:534
00:16:20.854 : :(04)00:16:20:854
00:19:55.986 : :(05)00:19:55:986
00:27:18.094 : :(06)00:27:18:094
00:33:08.444 : :(07)00:33:08:444
00:39:54.808 : :(08)00:39:54:808
00:43:08.877 : :(09)00:43:08:877
00:49:21.374 : :(10)00:49:21:374
00:54:41.152 : :(11)00:54:41:152
01:01:44.700 : :(12)01:01:44:700
01:09:07.393 : :(13)01:09:07:393
01:13:05.881 : :(14)01:13:05:881
01:15:39.076 : :(15)01:15:39:076
01:22:23.188 : :(16)01:22:23:188
01:33:38.404 : :(17)01:33:38:404
Релиз от: & &
pb.wtf



Скачать Восьмой класс через торрент https://b.radikal.ru/b16/2011/66/d39c27041e36.jpg Скачать фильм Восьмой класс через торрент бесплантно в хорошем качестве Описание: 13-летняя Кейла переживает переходный период своей юности. Ей предстоит вынести еще одну неделю кошмарного восьмого класса и ... 10 10 3
Торрент: Зарегистрирован [2020-11-04 19:07] · скачан: 45 раз
Статус: √ проверено
Размер: 1.45 GB
Как cкачать? Как скачать Восьмой класс через торрент | UTorrent

28-11-2019 20:33  

Отключить всю рекламу на сайте

05-11-2020 11:03 Восьмой класс Скачать торрент  

какие там переживания в 13 лет мои 13 лет пришли на 93 год в стране жопа а лично для меня было все норм это я про то что высосано все из пальца следующее кино про переживание семилетнего ребенка переход из дет сада в школуpb.wtf



    Дорогой пользователь! Огромная просьба, поблагодарите релизера, оцените раздачу и оставьте свои комментарий, если Вы скачали Восьмой класс через торрент бесплатно! Внесите свою лепту в развитие PiratBit!
    Комментировать посты могут только пользователи прошедшие не сложную регистрацию
    Показать сообщения:    

    Восьмой класс через торрент
    Скачать бесплатно Восьмой класс
    Восьмой класс скачать торрент
    Восьмой класс смотреть онлайн
    Cкачать фильм Восьмой класс бесплатно
    Восьмой класс скачать торрент в хорошем качестве
    Восьмой класс смотреть онлайн бесплатно в хорошем качестве


    Вы не можете начинать темы
    Вы не можете отвечать на сообщения
    Вы не можете редактировать свои сообщения
    Вы не можете удалять свои сообщения
    Вы не можете голосовать в опросах
    Вы не можете прикреплять файлы к сообщениям
    Вы можете скачивать файлы