Всегда рабочее зеркало без VPN и Proxy просто перед .vidak.icu напиши любое слово или цифру, Пример http://q72d.vidak.icu

MVO

2 сезон

1 сезон

1

1 сезон

iTunes

2 сезон

13

1 сезон

Распродажа

pack

Рекомендуем

Пиратка

30

ВАЖНО

RePack

MK11

RePack

jed

RePack

fifa19

RePack

RDR2

RePack

NEED FOR SPEED™ PAYBACK

Кинопоиск HD

6 сезон

 Острые козырьки 6 сезон

Все сериалы

все сериалы на PB.wtf

RePack

FAR CRY 5

Anonymous, нам критически не хватает 5601 руб. на оплату серверов и переферии за Апрель, помоги нам пожалуйста, вся надежда только на тебя. В благодарность мы отключим тебе всю рекламу на сайте!

×
  
Magnet ссылка

Субура / Suburra: Blood on Rome / Сезон: 3 / Серии: 1-6 из 6 (Джузеппе Капотонди, Андреа Молайоли, Микеле Плачидо) [2020, Драма, криминал, WEB-DL 720p] MVO [Jaskier] pb.wtf

Субура через торрент pb.wtf

Размер: 5.65 GB | Добавлен: 1 год 6 мес. назад | Торрент скачан:34 раза
Смотреть онлайн Субура | Скачать    Ребята, помогите собрать деньги на оплату серверов!!!

06-11-2020 04:46 Субура Скачать торрент  

Субура | Suburra: Blood on Rome
Год выпуска: 2020
Страна: Италия
Студия: Bartlebyfilm,Cattleya, NetFlix
Жанр: Драма, криминал
Продолжительность: 00:45:00
Перевод: Профессиональный (многоголосый закадровый) | Jaskier
Субтитры: отсутствуют

Режиссёр: Джузеппе Капотонди, Андреа Молайоли, Микеле Плачидо

В ролях: Филиппо Нигро, Франческо Аквароли, Джакомо Феррара, Клаудия Джерини, Алессандро Борги, Адамо Дионизи и другие

Описание: Субурра - это один из старейших римских районов, который некогда считался одним из самых грязных и опасных на территории города. Здесь процветала торговля, проституция, а в воздухе царила атмосфера обмана и преступности. Кажется, что те времена должны были уже давно пройти. Однако время не властно над этим райончиком. До сих пор в Субурре дела обстоят так же, как и много веков тому назад. К тому же культурная столица, имея при себе такой пригород не сыскала туристической популярности, а только получила негативный оттенок. Этот район живет своей жизнью. Здесь люди совершенно иначе мыслят, совершенно иначе смотрят на мир. Криминальная жизнь процветает, а молодые люди, вместо того, чтобы идти получать образование, идут в воровскую сферу, нанимаются телохранителями или киллерами или же идут в игорный бизнес, который здесь начинает процветать и замахивается на лавры самого Лас-Вегаса!расследования преступлений в Сан-Франциско.

rating

Качество: WEB-DL 720p
Формат: MKV

Видео: 1280x720 (16:9) | X264 | ~2200 kbps | 25.000 fps
Аудио 1: AC3, 48,0 КГц, 6 ch, 384 kbps - [RUS]
Аудио 2: AC3, 48,0 КГц, 6 ch, 384 kbps - [ITA]


Реклама: Присутствует звуковая (два раза в начале и конце по 10 сек.)
скриншот  скриншот  скриншот  

Общее
Уникальный идентификатор : 200332997238771346414322450454981998550 (0x96B6BB58C236E2558F59360165D577D6)
Полное имя : C:\Suburra. Season 3 (WEB-DL l 720p l Jaskier)\Suburra.S03E01.720p.WEB-DL.DD5.1.H.264-Jaskier.mkv
Формат : Matroska
Версия формата : Version 2
Размер файла : 960 Мбайт
Продолжительность : 44 м. 32 с.
Режим общего битрейта : Переменный
Общий поток : 3015 Кбит/сек
Дата кодирования : UTC 2020-11-05 21:32:39
Программа кодирования : mkvmerge v7.8.0 ('River Man') 32bit built on Apr 3 2015 12:11:22
Библиотека кодирования : libebml v1.3.1 + libmatroska v1.4.2

Видео
Идентификатор : 1
Формат : AVC
Формат/Информация : Advanced Video Codec
Профиль формата : Main@L3.1
Настройки формата : CABAC / 3 Ref Frames
Параметр CABAC формата : Да
Параметр RefFrames формата : 3 кадра
Идентификатор кодека : V_MPEG4/ISO/AVC
Продолжительность : 44 м. 32 с.
Вид битрейта : Переменный
Битрейт : 2187 Кбит/сек
Номинальный битрейт : 2370 Кбит/сек
Максимальный битрейт : 3555 Кбит/сек
Ширина : 1280 пикселей
Высота : 720 пикселей
Соотношение сторон : 16:9
Режим частоты кадров : Постоянный
Частота кадров : 25,000 кадров/сек
Цветовое пространство : YUV
Субдискретизация насыщенности : 4:2:0
Битовая глубина : 8 бит
Тип развёртки : Прогрессивная
Бит/(Пиксели*Кадры) : 0.095
Размер потока : 697 Мбайт (73%)
Библиотека кодирования : x264 core 148 r2722 1b0121b
Настройки программы : cabac=1 / ref=3 / deblock=1:0:0 / analyse=0x1:0x111 / me=umh / subme=10 / psy=1 / psy_rd=1.00:0.00 / mixed_ref=1 / me_range=24 / chroma_me=1 / trellis=2 / 8x8dct=0 / cqm=0 / deadzone=21,11 / fast_pskip=1 / chroma_qp_offset=-2 / threads=8 / lookahead_threads=1 / sliced_threads=0 / nr=0 / decimate=1 / interlaced=0 / bluray_compat=0 / stitchable=1 / constrained_intra=0 / bframes=2 / b_pyramid=0 / b_adapt=2 / b_bias=0 / direct=3 / weightb=1 / open_gop=0 / weightp=2 / keyint=250 / keyint_min=25 / scenecut=0 / intra_refresh=0 / rc_lookahead=50 / rc=2pass / mbtree=1 / bitrate=2370 / ratetol=1.0 / qcomp=0.50 / qpmin=6 / qpmax=51 / qpstep=4 / cplxblur=20.0 / qblur=0.5 / vbv_maxrate=3555 / vbv_bufsize=4740 / nal_hrd=vbr / filler=0 / ip_ratio=1.40 / aq=1:1.00
Язык : English
Default : Да
Forced : Нет

Аудио #1
Идентификатор : 2
Формат : AC-3
Формат/Информация : Audio Coding 3
Коммерческое название : Dolby Digital
Идентификатор кодека : A_AC3
Продолжительность : 44 м. 32 с.
Вид битрейта : Постоянный
Битрейт : 384 Кбит/сек
Каналы : 6 каналов
ChannelLayout : L R C LFE Ls Rs
Частота : 48,0 КГц
Частота кадров : 31,250 кадров/сек (1536 SPF)
Битовая глубина : 16 бит
Метод сжатия : С потерями
Размер потока : 122 Мбайт (13%)
Заголовок : Jaskier
Язык : Russian
ServiceKind/String : Complete Main
Default : Да
Forced : Нет

Аудио #2
Идентификатор : 3
Формат : AC-3
Формат/Информация : Audio Coding 3
Коммерческое название : Dolby Digital
Идентификатор кодека : A_AC3
Продолжительность : 44 м. 32 с.
Вид битрейта : Постоянный
Битрейт : 384 Кбит/сек
Каналы : 6 каналов
ChannelLayout : L R C LFE Ls Rs
Частота : 48,0 КГц
Частота кадров : 31,250 кадров/сек (1536 SPF)
Битовая глубина : 16 бит
Метод сжатия : С потерями
Размер потока : 122 Мбайт (13%)
Язык : Italian
ServiceKind/String : Complete Main
Default : Нет
Forced : Нет

pb.wtf



Скачать Субура через торрент https://img11.lostpic.net/2020/11/06/fb2ae2bf89b057b2cc2b06697cdf5b83.png Скачать, смотреть онлайн Субура бесплантно в хорошем качестве Описание: Субурра - это один из старейших римских районов, который некогда считался одним из самых грязных и опасных на территории города. ... 10 10 3
Торрент: Зарегистрирован [2020-11-06 04:46] · скачан: 34 раз
Статус: √ проверено
Размер: 5.65 GB
Как cкачать? Как скачать Субура через торрент | UTorrent

% Раздел Тема Автор DL S | L
Зарубежные сериалы [ 3.33 GB ] Субура / Suburra: Blood on Rome / Сезон: 3 / Серии: 1-6 из 6 [2020 WEB-DLRip] MVO [Jaskier] bober100 Скачать
1 | 0
Зарубежные сериалы [ 9.04 GB ] Субура / Suburra: Blood on Rome / Сезон: 3 / Серии: 1-6 из 6 [2020 WEB-DL 1080p] MVO [Jaskier] bober100 Скачать
1 | 0

28-11-2019 20:33  

Отключить всю рекламу на сайте

    Дорогой пользователь! Огромная просьба, поблагодарите релизера, оцените раздачу и оставьте свои комментарий, если Вы скачали Субура через торрент бесплатно!
    Комментировать посты могут только пользователи прошедшие не сложную регистрацию
    Показать сообщения:    

    Субура через торрент
    Скачать бесплатно Субура
    Субура скачать торрент
    Субура смотреть онлайн
    Cкачать фильм Субура бесплатно
    Субура скачать торрент в хорошем качестве
    Субура смотреть онлайн бесплатно в хорошем качестве


    Вы не можете начинать темы
    Вы не можете отвечать на сообщения
    Вы не можете редактировать свои сообщения
    Вы не можете удалять свои сообщения
    Вы не можете голосовать в опросах
    Вы не можете прикреплять файлы к сообщениям
    Вы можете скачивать файлы