Всегда рабочее зеркало без VPN и Proxy просто перед .vidak.icu напиши любое слово или цифру, Пример http://4npp.vidak.icu

MVO

Лицензия

1 сезон

1

1 сезон

iTunes

1 сезон

13

1 сезон

Deluxe

pack

Рекомендуем

Пиратка

30

ВАЖНО

RePack

MK11

RePack

jed

RePack

fifa19

RePack

RDR2

RePack

NEED FOR SPEED™ PAYBACK

Кинопоиск HD

6 сезон

 Острые козырьки 6 сезон

Все сериалы

все сериалы на PB.wtf

RePack

FAR CRY 5
  
Magnet ссылка

Женский стендап / Stand Up / Сезон: 2 / Выпуски: 1-12 из 14 [2020, ТВ-шоу, юмор, SATRip] pb.wtf

Женский стендап через торрент pb.wtf

Размер: 7.33 GB | Добавлен: 1 год 6 мес. назад | Торрент скачан:115 раз
Смотреть онлайн Женский стендап | Скачать    Ребята, помогите собрать деньги на оплату серверов!!!

07-11-2020 14:29 Женский стендап Скачать торрент  

Женский стендап / Stand Up
Год выпуска: 2020
Страна: Россия
Жанр: ТВ-шоу, юмор
Продолжительность: ~ 00:48:00 серия
Перевод: Не требуется
Субтитры: отсутствуют

В ролях: Зоя Яровицына, Надежда Джабраилова, Александра Муратова, Мария Маркова, Сауле Юсупова, Маргарита Родина, Павел Залуцкий

Описание: Если ты думаешь, что женщины не ругаются, не жалуются на детей, не шутят о сексе и еще множество всяких «не», то это шоу докажет обратное! Для героинь «Женского стендапа» нет запретных тем. Они честно говорят о том, что их не устраивает в отношениях, высмеивают стереотипы семейной жизни и откровенно заявляют, что быть хорошей матерью вообще-то очень сложно. Хочешь узнать, о чем думают женщины, смотри «Женский стендап»!



Качество: SATRip
Формат: AVI

Видео: XviD, 720x400 (16:9), 25.000 fps, ~ 1700 Кбит/с, (0.235 bit/pixel)
Аудио: MP3, 48.0 KHz, 2 ch, 192 Кбит/с, CBR
скриншот  скриншот  скриншот  скриншот  скриншот  

Общее
Полное имя : D:\Женский.Стендап.S02.XviD.2020.SATRip.7turza™\01.Женский.Стендап.S02.7turza™.avi
Формат : AVI
Формат/Информация : Audio Video Interleave
Размер файла : 651 Мбайт
Продолжительность : 47 м. 53 с.
Общий поток : 1900 Кбит/сек
Название фильма : S02 E01 # from 7turza #
Программа кодирования : Lavf58.45.100

Видео
Идентификатор : 0
Формат : MPEG-4 Visual
Профиль формата : Advanced Simple@L5
Настройки формата : BVOP1
Параметр BVOP формата : 1
Параметр QPel формата : Нет
Параметр GMC формата : Без точки перехода
Параметр матрицы формата : Default (H.263)
Идентификатор кодека : XVID
Идентификатор кодека/Подсказка : XviD
Продолжительность : 47 м. 53 с.
Битрейт : 1695 Кбит/сек
Ширина : 720 пикселей
Высота : 400 пикселей
Соотношение сторон : 1,85:1
Частота кадров : 25,000 кадров/сек
Цветовое пространство : YUV
Субдискретизация насыщенности : 4:2:0
Битовая глубина : 8 бит
Тип развёртки : Прогрессивная
Метод сжатия : С потерями
Бит/(Пиксели*Кадры) : 0.235
Размер потока : 581 Мбайт (89%)
Библиотека кодирования : XviD 69

Аудио
Идентификатор : 1
Формат : MPEG Audio
Версия формата : Version 1
Профиль формата : Layer 3
Настройки формата : Joint stereo
Идентификатор кодека : 55
Идентификатор кодека/Подсказка : MP3
Продолжительность : 47 м. 53 с.
Вид битрейта : Постоянный
Битрейт : 192 Кбит/сек
Каналы : 2 канала
Частота : 48,0 КГц
Метод сжатия : С потерями
Размер потока : 65,8 Мбайт (10%)
Выравнивание : Соединение по промежуткам
Продолжительность промежутка : 24 мс. (0,60 видеокадр)

Раздача ведётся путём добавления новых серий, при каждом добавлении создаётся новый торрент. Чтобы начать докачку новой серии, пользователям необходимо сделать следующее:
- Остановить скачивание.
- Удалить старый торрент у себя из клиента (старые серии удалять не надо).
- Скачать новый торрент и запустить его у себя в клиенте вместо старого, при этом указать клиенту путь в старую папку куда и должно происходить скачивание новых серий.
Ваш клиент при этом должен произвести хеширование (проверку) старой папки (если не производит сам - помогите ему сделать это), и будет докачивать только те серии которых у вас ещё нет. Старые серии при этом не удаляются, а продолжают раздаваться!
pb.wtf



Скачать Женский стендап через торрент https://i111.fastpic.ru/big/2020/0122/26/0b70c6435c62a9beb2aca08dd0905226.jpg Скачать, смотреть онлайн Женский стендап бесплантно в хорошем качестве Описание: Если ты думаешь, что женщины не ругаются, не жалуются на детей, не шутят о сексе и еще множество всяких «не», то это шоу докажет ... 8.9 10 8
Торрент: Зарегистрирован [2020-12-12 15:42] · скачан: 115 раз
Статус: √ проверено
Размер: 7.33 GB
Как cкачать? Как скачать Женский стендап через торрент | UTorrent

28-11-2019 20:33  

Отключить всю рекламу на сайте

    Дорогой пользователь! Огромная просьба, поблагодарите релизера, оцените раздачу и оставьте свои комментарий, если Вы скачали Женский стендап через торрент бесплатно!
    Комментировать посты могут только пользователи прошедшие не сложную регистрацию
    Показать сообщения:    

    Женский стендап через торрент
    Скачать бесплатно Женский стендап
    Женский стендап скачать торрент
    Женский стендап смотреть онлайн
    Cкачать фильм Женский стендап бесплатно
    Женский стендап скачать торрент в хорошем качестве
    Женский стендап смотреть онлайн бесплатно в хорошем качестве


    Вы не можете начинать темы
    Вы не можете отвечать на сообщения
    Вы не можете редактировать свои сообщения
    Вы не можете удалять свои сообщения
    Вы не можете голосовать в опросах
    Вы не можете прикреплять файлы к сообщениям
    Вы можете скачивать файлы