2 сезон

iTunes

MVO

1

2 сезон

iTunes

iTunes

1 сезон

RePack

30

Новинка

ВАЖНО

ИГРА 18+

pack

RePack

MK11
pack

Легкие деньги

RePack

jed

RePack

fifa19

RePack

RDR2

RePack

NEED FOR SPEED™ PAYBACK

4 сезон

9 сезон

Бесстыжие 9 сезон

Все сериалы

все сериалы на PB.wtf

RePack

FAR CRY 5

Anonymous, добрый вечер, мы не успеваем собрать деньги на оплату серверов за декабрь и январь, помогите нам пожалуйста в это трудное время. В качестве благодарности мы отключим Вам всю рекламу на сайте (укажите свой ник в строку Ваше имя)!

×
  
Magnet ссылка

Охотник на зомби / Zombie Hunter (К. Кинг) [2013 г., Фантастика, боевик, триллер, HDRip-AVC] [MVO] [НТВ+] от MediaBit pb.wtf

Охотник на зомби через торрент pb.wtf

Раздают: 1 [ 0 KB/s ]
Размер: 1.45 GB | Добавлен: 2 мес. 10 д. назад | Торрент скачан:44 раза
Скачать  

07-11-2020 16:13 Охотник на зомби Скачать торрент  


Охотник на зомби / Zombie Hunter
Информация о фильме:
Название: Охотник на зомби
Оригинальное название: Zombie Hunter
Год выхода: 2013
Жанр: Фантастика, боевик, триллер, комедия
Режиссер: К. Кинг
В ролях: Мартин Коппинг, Дэнни Трехо, Клэр Нидерпрюэм, Джейд Рэгир, Джейсон К. Уиксом, Терри Гатри, Шона Кэй, Джефф Киркэм, Майкл Монастерио, Джаррод Филлипс

Описание: Охотник-одиночка путешествует по постапокалиптическому миру, кишащему зомби. Вся его семья погибла, и теперь он мстит за них. На пути ему встречается колония поселенцев, которые с трудом сдерживают атаки мутантов. Он — их последняя надежда в этом мире. Но согласится ли одиночка объединить усилия?



Страна: США
Студия: Arrowstorm Entertainment, Klimax, The
Продолжительность: 01:32:49
Перевод: Профессиональный (многоголосый, закадровый) - НТВ+



Информация о файле:
Кодек: AVC
Формат: MKV
Качество: HDRip-AVC
Видео: MPEG-4 AVC, 1024x436 (2.35:1), 23.976 fps, 1341 kbps, 0.125
Аудио RU: AC3, 6 ch, 48 kHz, 448 kbps
Аудио EN: AC3, 6 ch, 48 kHz, 448 kbps
Субтитры: Russian (Full)
Навигация по главам: Да

x264 info: frame I:986 Avg QP:17.14 size: 54373
x264 info: frame P:30064 Avg QP:21.09 size: 14968
x264 info: frame B:102479 Avg QP:22.96 size: 4195
General
Unique ID : 52698720265256411432648894684606916119 (0x27A56782C24F7394600CFA2320426617)
Complete name : D:uTorrentРипы_от_wolf1245_MediaBitZombie Hunter (2013) from wolf1245 & MediaBit.mkv
Format : Matroska
Format version : Version 4
File size : 1.45 GiB
Duration : 1 h 32 min
Overall bit rate : 2 239 kb/s
Movie name : Zombie Hunter (2013) from wolf1245 & MediaBit
Encoded date : UTC 2020-11-07 15:58:03
Writing application : mkvmerge v51.0.0 ('I Wish') 64-bit
Writing library : libebml v1.4.0 + libmatroska v1.6.2
Video
ID : 1
Format : AVC
Format/Info : Advanced Video Codec
Format profile : High@L4.1
Format settings : CABAC / 12 Ref Frames
Format settings, CABAC : Yes
Format settings, Reference frames : 12 frames
Codec ID : V_MPEG4/ISO/AVC
Duration : 1 h 32 min
Bit rate : 1 341 kb/s
Width : 1 024 pixels
Height : 436 pixels
Display aspect ratio : 2.35:1
Frame rate mode : Constant
Frame rate : 23.976 (24000/1001) FPS
Color space : YUV
Chroma subsampling : 4:2:0
Bit depth : 8 bits
Scan type : Progressive
Bits/(Pixel*Frame) : 0.125
Stream size : 890 MiB (60%)
Title : wolf1245 & MediaBit
Writing library : x264 core 157 r2958 57baac4
Encoding settings : cabac=1 / ref=12 / deblock=1:-3:-2 / analyse=0x3:0x133 / me=umh / subme=11 / psy=1 / psy_rd=1.03:0.03 / mixed_ref=1 / me_range=48 / chroma_me=1 / trellis=2 / 8x8dct=1 / cqm=0 / deadzone=21,11 / fast_pskip=0 / chroma_qp_offset=-3 / threads=10 / lookahead_threads=2 / sliced_threads=0 / nr=0 / decimate=0 / interlaced=0 / bluray_compat=0 / constrained_intra=0 / bframes=12 / b_pyramid=2 / b_adapt=2 / b_bias=0 / direct=3 / weightb=1 / open_gop=0 / weightp=2 / keyint=240 / keyint_min=24 / scenecut=40 / intra_refresh=0 / rc_lookahead=100 / rc=2pass / mbtree=0 / bitrate=1341 / ratetol=1.0 / qcomp=0.60 / qpmin=0 / qpmax=69 / qpstep=4 / cplxblur=20.0 / qblur=0.5 / vbv_maxrate=50000 / vbv_bufsize=62500 / nal_hrd=none / filler=0 / ip_ratio=1.40 / pb_ratio=1.30 / aq=2:0.80
Language : English
Default : Yes
Forced : No
Color range : Limited
Matrix coefficients : BT.709
Audio #1
ID : 2
Format : AC-3
Format/Info : Audio Coding 3
Commercial name : Dolby Digital
Codec ID : A_AC3
Duration : 1 h 32 min
Bit rate mode : Constant
Bit rate : 448 kb/s
Channel(s) : 6 channels
Channel layout : L R C LFE Ls Rs
Sampling rate : 48.0 kHz
Frame rate : 31.250 FPS (1536 SPF)
Compression mode : Lossy
Stream size : 297 MiB (20%)
Title : RUS / НТВ+
Language : Russian
Service kind : Complete Main
Default : Yes
Forced : No
Audio #2
ID : 3
Format : AC-3
Format/Info : Audio Coding 3
Commercial name : Dolby Digital
Codec ID : A_AC3
Duration : 1 h 32 min
Bit rate mode : Constant
Bit rate : 448 kb/s
Channel(s) : 6 channels
Channel layout : L R C LFE Ls Rs
Sampling rate : 48.0 kHz
Frame rate : 31.250 FPS (1536 SPF)
Compression mode : Lossy
Stream size : 297 MiB (20%)
Title : ENG / original
Language : English
Service kind : Complete Main
Default : No
Forced : No
Text
ID : 4
Format : UTF-8
Codec ID : S_TEXT/UTF8
Codec ID/Info : UTF-8 Plain Text
Duration : 1 h 27 min
Bit rate : 49 b/s
Count of elements : 687
Stream size : 31.5 KiB (0%)
Title : Full
Language : Russian
Default : No
Forced : No
Menu
00:00:00.000 : :00:00:00.000
00:04:23.180 : :00:04:23.180
00:14:34.207 : :00:14:34.207
00:19:22.203 : :00:19:22.203
00:27:46.540 : :00:27:46.540
00:36:04.371 : :00:36:04.371
00:44:15.736 : :00:44:15.736
00:50:24.480 : :00:50:24.480
00:56:24.548 : :00:56:24.548
01:02:35.335 : :01:02:35.335
01:09:36.171 : :01:09:36.172
01:14:42.019 : :01:14:42.019
01:22:06.588 : :01:22:06.588
01:27:48.263 : :01:27:48.263
Релиз от: & &
pb.wtf



Скачать Охотник на зомби через торрент https://c.radikal.ru/c20/2011/b0/6a21e439ac6a.png Скачать фильм Охотник на зомби через торрент бесплантно в хорошем качестве Описание: Охотник-одиночка путешествует по постапокалиптическому миру, кишащему зомби. Вся его семья погибла, и теперь он мстит за них. ... 10 10 3
Торрент: Зарегистрирован [2020-11-07 16:13] · скачан: 44 раз
Статус: √ проверено
Размер: 1.45 GB
Как cкачать? Как скачать Охотник на зомби через торрент | UTorrent

28-11-2019 20:33  

Отключить всю рекламу на сайте


    Дорогой пользователь! Огромная просьба, поблагодарите релизера, оцените раздачу и оставьте свои комментарий, если Вы скачали Охотник на зомби через торрент бесплатно! Внесите свою лепту в развитие PiratBit!
    Комментировать посты могут только пользователи прошедшие не сложную регистрацию
    Показать сообщения:    

    Охотник на зомби через торрент
    Скачать бесплатно Охотник на зомби
    Охотник на зомби скачать торрент
    Охотник на зомби смотреть онлайн
    Cкачать фильм Охотник на зомби бесплатно
    Охотник на зомби скачать торрент в хорошем качестве
    Охотник на зомби смотреть онлайн бесплатно в хорошем качестве


    Вы не можете начинать темы
    Вы не можете отвечать на сообщения
    Вы не можете редактировать свои сообщения
    Вы не можете удалять свои сообщения
    Вы не можете голосовать в опросах
    Вы не можете прикреплять файлы к сообщениям
    Вы можете скачивать файлы